4K天堂

 找回密码
 立即注册
查看: 435|回复: 36

[欧美] [北欧人]The.Northman.2022.1080p.BluRay.x264.DTS-HD.MA.7.1-MT 21.99GB

[复制链接]

4040

主题

4042

帖子

1万

积分

版主

Rank: 7Rank: 7Rank: 7

积分
17803
发表于 2022-5-22 21:56:06 | 显示全部楼层 |阅读模式


◎译  名 北欧人 / 北方人(台)
◎片  名 The Northman
◎年  代 2022
◎产  地 美国
◎类  别 剧情
◎语  言 英语
◎上映日期 2022-04-15(英国) / 2022-04-22(美国) / 2022-05-13(美国网络)
◎4K电影下载 http://www.4ktt.com/
◎豆瓣评分 7.2/10 (1035人评价)
◎豆瓣链接 https://movie.douban.com/subject/34861178/
◎片  长 140分钟
◎导  演 罗伯特·艾格斯 Robert Eggers (id:1351393)
◎编  剧 罗伯特·艾格斯 Robert Eggers (id:1351393)
      秀恩·西古尔德森 Sjón Sigurdsson (id:1052018)
◎演  员 亚历山大·斯卡斯加德 Alexander Skarsg?rd (id:1049485)
      妮可·基德曼 Nicole Kidman (id:1054442)
      克拉斯·邦 Claes Bang (id:1067129)
      伊桑·霍克 Ethan Hawke (id:1018984)
      安雅·泰勒-乔伊 Anya Taylor-Joy (id:1354934)
      古斯塔夫·林德 Gustav Lindh (id:1413706)
      艾略特·罗斯 Elliott Rose (id:1470646)
      威廉·达福 Willem Dafoe (id:1010539)
      菲尔·马丁 Phill Martin (id:1470647)
      埃尔达·斯卡 Eldar Skar (id:1360101)
      欧文·弗热瑞 Olwen Fouéré (id:1355887)
      埃德加·阿布拉姆 Edgar Abram (id:1470650)
      杰克·加斯曼 Jack Gassmann (id:1470651)
      英格瓦·埃盖特·西古德松 Ingvar Eggert Siguresson (id:1041279)
      奥斯卡·诺瓦克 Oscar Novak (id:1470648)
      杰克·沃尔什 Jack Walsh (id:1363036)
      比约克 Bj?rk (id:1054628)
      伊恩·怀特 Ian Whyte (id:1183951)
      凯蒂·帕廷森 Katie Pattinson (id:1470649)
      凯特·迪基 Kate Dickie (id:1282399)
      谢默斯·奥哈拉 Seamus O'Hara (id:1453625)
      塔格·墨菲 Tadhg Murphy (id:1308673)
      哈弗波·朱利尔斯·比昂森 Haftór Júlíus Bj?rnsson (id:1347773)
      拉尔夫·伊内森 Ralph Ineson (id:1108378)
      默里·麦克阿瑟 Murray McArthur (id:1117558)
      乔恩·坎普林 Jon Campling (id:1218535)
      迈克尔·舍费尔 Michael Schaefer (id:1355118)
      露易丝·福特 Louise Ford (id:1450155)
      Linda Muir (id:1471352)

◎简  介  
  一名年轻的维京王子踏上为父复仇之路。
Video
ID : 1
Format : AVC
Format/Info : Advanced Video Codec
Format profile : [email protected]
Format settings : CABAC / 4 Ref Frames
Format settings, CABAC : Yes
Format settings, Reference frames : 4 frames
Codec ID : V_MPEG4/ISO/AVC
Duration : 2 h 16 min
Bit rate : 18.4 Mb/s
Width : 1 920 pixels
Height : 960 pixels
Display aspect ratio : 2.000
Frame rate mode : Constant
Frame rate : 23.976 (24000/1001/189150) FPS
Color space : YUV
Chroma subsampling : 4:2:0
Bit depth : 8 bits
Scan type : Progressive
Bits/(Pixel*Frame) : 0.417
Stream size : 17.6 GiB (80%)
Writing library : x264 core 157 r2938 2b00a84 [email protected] Mod
Encoding settings : cabac=1 / ref=4 / deblock=1:-3:-3 / analyse=0x3:0x133 / me=umh / subme=10 / psy=1 / psy_rd=1.05:0.00 / mixed_ref=1 / me_range=32 / chroma_me=1 / trellis=2 / 8x8dct=1 / cqm=0 / deadzone=21,11 / fast_pskip=0 / chroma_qp_offset=-2 / threads=12 / lookahead_threads=2 / sliced_threads=0 / nr=0 / decimate=0 / interlaced=0 / bluray_compat=0 / constrained_intra=0 / bframes=8 / b_pyramid=2 / b_adapt=2 / b_bias=0 / direct=3 / weightb=1 / open_gop=0 / weightp=2 / keyint=250 / keyint_min=24 / scenecut=40 / intra_refresh=0 / rc_lookahead=250 / rc=crf / mbtree=0 / crf=16.8 / qcomp=0.60 / qpmin=0 / qpmax=69 / qpstep=4 / vbv_maxrate=62500 / vbv_bufsize=78125 / crf_max=0.0 / nal_hrd=none / filler=0 / ip_ratio=1.30 / pb_ratio=1.20 / aq=3:0.80
Language : English
Default : Yes
Forced : No
Color range : Limited
Color primaries : BT.709
Matrix coefficients : BT.709

Audio
ID : 2
Format : DTS XLL
Format/Info : Digital Theater Systems
Commercial name : DTS-HD Master Audio
Codec ID : A_DTS
Duration : 2 h 16 min
Bit rate mode : Variable
Bit rate : 4 544 kb/s
Channel(s) : 8 channels
Channel layout : C L R LFE Lb Rb Lss Rss
Sampling rate : 48.0 kHz
Frame rate : 93.750 FPS (512 SPF)
Bit depth : 24 bits
Compression mode : Lossless
Stream size : 4.34 GiB (20%)
Language : English
Default : Yes
Forced : No

Text #1
ID : 3
Format : UTF-8
Codec ID : S_TEXT/UTF8
Codec ID/Info : UTF-8 Plain Text
Duration : 2 h 7 min
Bit rate : 27 b/s
Count of elements : 958
Stream size : 25.5 KiB (0%)
Language : English
Default : Yes
Forced : No

Text #2
ID : 4
Format : UTF-8
Codec ID : S_TEXT/UTF8
Codec ID/Info : UTF-8 Plain Text
Duration : 2 h 7 min
Bit rate : 40 b/s
Count of elements : 1538
Stream size : 38.1 KiB (0%)
Title : SDH
Language : English
Default : No
Forced : No

Text #3
ID : 5
Format : PGS
Muxing mode : zlib
Codec ID : S_HDMV/PGS
Codec ID/Info : Picture based subtitle format used on BDs/HD-DVDs
Duration : 2 h 7 min
Bit rate : 30.9 kb/s
Count of elements : 3098
Stream size : 28.3 MiB (0%)
Language : English
Default : No
Forced : No

Menu
00:00:00.000 : en:Chapter 01
00:08:53.992 : en:Chapter 02
00:15:47.613 : en:Chapter 03
00:22:04.615 : en:Chapter 04
00:30:23.697 : en:Chapter 05
00:39:44.340 : en:Chapter 06
00:46:18.401 : en:Chapter 07
00:51:43.267 : en:Chapter 08
00:58:14.032 : en:Chapter 09
01:05:22.335 : en:Chapter 10
01:11:55.019 : en:Chapter 11
01:16:49.563 : en:Chapter 12
01:23:36.094 : en:Chapter 13
01:27:16.690 : en:Chapter 14
01:35:42.862 : en:Chapter 15
01:41:02.390 : en:Chapter 16
01:46:38.225 : en:Chapter 17
01:55:44.855 : en:Chapter 18
02:01:06.968 : en:Chapter 19
02:08:41.255 : en:Chapter 20


本帖子中包含更多资源

您需要 登录 才可以下载或查看,没有帐号?立即注册

x
回复

使用道具 举报

0

主题

295

帖子

98

积分

初级会员

Rank: 2

积分
98
发表于 2022-5-24 08:00:27 | 显示全部楼层
感谢楼主分享
回复

使用道具 举报

0

主题

341

帖子

63

积分

初级会员

Rank: 2

积分
63
发表于 2022-5-24 09:01:58 | 显示全部楼层
谢谢版主分享
回复

使用道具 举报

0

主题

63

帖子

303

积分

初级会员

Rank: 2

积分
303
发表于 2022-5-24 09:10:12 | 显示全部楼层
谢谢版主分享
回复

使用道具 举报

0

主题

66

帖子

28

积分

新手上路

Rank: 1

积分
28
发表于 2022-5-24 09:23:57 | 显示全部楼层
谢谢分享
回复

使用道具 举报

0

主题

144

帖子

75

积分

初级会员

Rank: 2

积分
75
发表于 2022-5-24 09:25:25 | 显示全部楼层
谢谢,下来看看。。。
回复

使用道具 举报

0

主题

221

帖子

52

积分

初级会员

Rank: 2

积分
52
发表于 2022-5-24 09:59:33 | 显示全部楼层
又是一个哈姆雷特的故事?
回复

使用道具 举报

0

主题

31

帖子

40

积分

新手上路

Rank: 1

积分
40
发表于 2022-5-24 12:39:50 | 显示全部楼层
DDDDDDDDDDDDDDDDDDDDDDDDDDDDDDDDD
回复

使用道具 举报

0

主题

199

帖子

21

积分

新手上路

Rank: 1

积分
21
发表于 2022-5-24 14:04:17 | 显示全部楼层

谢谢版主分享
回复

使用道具 举报

0

主题

97

帖子

41

积分

新手上路

Rank: 1

积分
41
发表于 2022-5-24 14:16:41 | 显示全部楼层
手打阿萨德阿萨德
回复

使用道具 举报

您需要登录后才可以回帖 登录 | 立即注册

本版积分规则

为防丢失网站网址,敬请关注官方微信公众号,再也不会迷路!
4K天堂会一路坚持,共建高清电影爱好者的精神家园。

Archiver|手机版|小黑屋|4K电影下载

GMT+8, 2022-7-5 04:53 , Processed in 0.125000 second(s), 21 queries , Gzip On.

Powered by Discuz! X3.4

Copyright © 2001-2020, Tencent Cloud.

快速回复 返回顶部 返回列表