4K天堂

 找回密码
 立即注册
查看: 274|回复: 5

[玩尽杀绝].1998.UNRATED.2160p.BluRay.x265.10bit.SDR.DTS-HD.MA-SWTYBLZ 62.7GB

[复制链接]

2594

主题

2650

帖子

4万

积分

管理员

Rank: 9Rank: 9Rank: 9

积分
47689
发表于 2022-5-22 20:52:22 | 显示全部楼层 |阅读模式


◎译  名 玩尽杀绝 / 野东西
◎片  名 Wild Things
◎年  代 1998
◎产  地 美国
◎类  别 悬疑 / 惊悚 / 犯罪
◎语  言 英语
◎上映日期 1998-03-20
◎4K电影下载 http://www.4ktt.com/
◎豆瓣评分 7.0/10 (14173人评价)
◎豆瓣链接 https://movie.douban.com/subject/1292552/
◎片  长 108 分钟
◎导  演 约翰·麦克诺顿 John McNaughton (id:1014234)
◎演  员 凯文·贝肯 Kevin Bacon (id:1009260)
       马特·狄龙 Matt Dillon (id:1004583)
       内芙·坎贝尔 Neve Campbell (id:1027828)
       泰莉莎·拉塞尔 Theresa Russell (id:1032016)
       丹妮丝·理查兹 Denise Richards (id:1004601)
       达芬妮·鲁宾-维佳 Daphne Rubin-Vega (id:1147513)
       罗伯特·瓦格纳 Robert Wagner (id:1055695)
       比尔·默瑞 Bill Murray (id:1054508)
       卡丽·斯诺格丽丝 Carrie Snodgress (id:1150688)
       杰夫·帕里 Jeff Perry (id:1022869)
       科里·彭德格斯特 Cory Pendergast (id:1131756)
       马克·麦考利 Marc Macaulay (id:1116920)
       Steven A. Jones Steven A. Jones (id:1287898)
       Elena Maganini Elena Maganini (id:1290713)
       Linda Lowy Linda Lowy (id:1276223)
       William Hiney William Hiney (id:1286663)
       Ty Arnold Ty Arnold (id:1277439)
       阿蒂·马莱西 Artie Malesci (id:1290797)

◎简  介  
  这是一局环环紧扣的阴谋游戏。小镇上的中学教师萨姆(马特?狄龙 Matt Dillon 饰)这天为学生作完性主题的犯罪演讲后,女学生凯莉就溜进了他的房间,面对青春迷人的凯莉(丹妮丝?理查兹 Denise Richards 饰),萨姆惊得目瞪口呆。这一幕被凯莉的母亲桑德拉(泰莉莎?拉塞尔 Theresa Russell 饰)撞见了,她此前曾和萨姆有过风流的一夜。醋意大发的桑德拉以学校捐助人的身份要求校长将萨姆解职,萨姆因此糊里糊涂丢掉了工作。屋漏偏逢连夜雨,小镇上的一名女学生苏茜(内芙?坎贝尔 Neve Campbell 饰)突然控告萨姆强奸了自己,桑德拉出资聘请了有名的大律师状告萨姆。身无分文的萨姆请不起律师,虽然有贪财的保险人博登在庭上帮他辩护,但面对对方的资深律师,法庭的形势对萨姆十分不利。然而此时,事态有了新的转折!
Video
ID                                       : 1
Format                                   : HEVC
Format/Info                              : High Efficiency Video Coding
Format profile                           : Main [email protected]@High
Codec ID                                 : V_MPEGH/ISO/HEVC
Duration                                 : 1 h 54 min
Bit rate                                 : 73.0 Mb/s
Width                                    : 3 840 pixels
Height                                   : 1 606 pixels
Display aspect ratio                     : 2.40:1
Frame rate mode                          : Constant
Frame rate                               : 23.976 (24000/1001/189150) FPS
Color space                              : YUV
Chroma subsampling                       : 4:2:0
Bit depth                                : 10 bits
Bits/(Pixel*Frame)                       : 0.494
Stream size                              : 58.5 GiB (94%)
Writing library                          : x265 3.0ed72af837053:[Windows][GCC 8.2.0][64 bit] 10bit
Encoding settings                        : cpuid=1111039 / frame-threads=6 / numa-pools=40 / wpp / no-pmode / no-pme / no-psnr / no-ssim / log-level=2 / input-csp=1 / input-res=3840x1606 / interlace=0 / total-frames=165130 / level-idc=51 / high-tier=1 / uhd-bd=0 / ref=3 / no-allow-non-conformance / repeat-headers / annexb / aud / hrd / info / hash=0 / no-temporal-layers / no-open-gop / min-keyint=1 / keyint=24 / gop-lookahead=0 / bframes=4 / b-adapt=2 / b-pyramid / bframe-bias=0 / rc-lookahead=25 / lookahead-slices=4 / scenecut=40 / radl=0 / no-splice / no-intra-refresh / ctu=64 / min-cu-size=8 / no-rect / no-amp / max-tu-size=32 / tu-inter-depth=1 / tu-intra-depth=1 / limit-tu=0 / rdoq-level=0 / dynamic-rd=0.00 / no-ssim-rd / signhide / no-tskip / nr-intra=0 / nr-inter=0 / no-constrained-intra / strong-intra-smoothing / max-merge=2 / limit-refs=3 / no-limit-modes / me=1 / subme=2 / merange=57 / temporal-mvp / weightp / no-weightb / no-analyze-src-pics / deblock=0:0 / no-sao / no-sao-non-deblock / rd=3 / no-early-skip / rskip / no-fast-intra / no-tskip-fast / no-cu-lossless / no-b-intra / no-splitrd-skip / rdpenalty=0 / psy-rd=2.00 / psy-rdoq=0.00 / no-rd-refine / no-lossless / cbqpoffs=0 / crqpoffs=0 / rc=crf / crf=19.0 / qcomp=0.60 / qpstep=4 / stats-write=0 / stats-read=0 / vbv-maxrate=160000 / vbv-bufsize=160000 / vbv-init=0.9 / crf-max=0.0 / crf-min=0.0 / ipratio=1.40 / pbratio=1.30 / aq-mode=1 / aq-strength=1.00 / cutree / zone-count=0 / no-strict-cbr / qg-size=32 / no-rc-grain / qpmax=69 / qpmin=0 / no-const-vbv / sar=1 / overscan=0 / videoformat=5 / range=0 / colorprim=2 / transfer=2 / colormatrix=2 / chromaloc=0 / display-window=0 / max-cll=0,0 / min-luma=0 / max-luma=1023 / log2-max-poc-lsb=8 / vui-timing-info / vui-hrd-info / slices=1 / opt-qp-pps / opt-ref-list-length-pps / no-multi-pass-opt-rps / scenecut-bias=0.05 / no-opt-cu-delta-qp / no-aq-motion / no-hdr / no-hdr-opt / no-dhdr10-opt / no-idr-recovery-sei / analysis-reuse-level=5 / scale-factor=0 / refine-intra=0 / refine-inter=0 / refine-mv=0 / refine-ctu-distortion=0 / no-limit-sao / ctu-info=0 / no-lowpass-dct / refine-analysis-type=0 / copy-pic=1 / max-ausize-factor=1.0 / no-dynamic-refine / no-single-sei / no-hevc-aq / qp-adaptation-range=1.00
Default                                  : Yes
Forced                                   : No

Audio #1
ID                                       : 2
ID in the original source medium         : 4352 (0x1100)
Format                                   : DTS XLL
Format/Info                              : Digital Theater Systems
Commercial name                          : DTS-HD Master Audio
Codec ID                                 : A_DTS
Duration                                 : 1 h 54 min
Bit rate mode                            : Variable
Bit rate                                 : 4 020 kb/s
Channel(s)                               : 6 channels
Channel layout                           : C L R Ls Rs LFE
Sampling rate                            : 48.0 kHz
Frame rate                               : 93.750 FPS (512 SPF)
Bit depth                                : 24 bits
Compression mode                         : Lossless
Stream size                              : 3.22 GiB (5%)
Title                                    : DTS-HD MA 5.1
Language                                 : English
Default                                  : Yes
Forced                                   : No
Original source medium                   : Blu-ray

Audio #2
ID                                       : 3
Format                                   : AC-3
Format/Info                              : Audio Coding 3
Commercial name                          : Dolby Digital
Codec ID                                 : A_AC3
Duration                                 : 1 h 54 min
Bit rate mode                            : Constant
Bit rate                                 : 640 kb/s
Channel(s)                               : 6 channels
Channel layout                           : L R C LFE Ls Rs
Sampling rate                            : 48.0 kHz
Frame rate                               : 31.250 FPS (1536 SPF)
Compression mode                         : Lossy
Stream size                              : 525 MiB (1%)
Title                                    : DD 5.1
Language                                 : English
Service kind                             : Complete Main
Default                                  : No
Forced                                   : No

Text #1
ID                                       : 4
Format                                   : UTF-8
Codec ID                                 : S_TEXT/UTF8
Codec ID/Info                            : UTF-8 Plain Text
Duration                                 : 1 h 50 min
Bit rate                                 : 54 b/s
Count of elements                        : 1173
Stream size                              : 43.9 KiB (0%)
Language                                 : English
Default                                  : Yes
Forced                                   : No

Text #2
ID                                       : 5
Format                                   : UTF-8
Codec ID                                 : S_TEXT/UTF8
Codec ID/Info                            : UTF-8 Plain Text
Duration                                 : 1 h 53 min
Bit rate                                 : 55 b/s
Count of elements                        : 1272
Stream size                              : 46.2 KiB (0%)
Title                                    : SDH
Language                                 : English
Default                                  : No
Forced                                   : No

Text #3
ID                                       : 6
ID in the original source medium         : 4768 (0x12A0)
Format                                   : PGS
Muxing mode                              : zlib
Codec ID                                 : S_HDMV/PGS
Codec ID/Info                            : Picture based subtitle format used on BDs/HD-DVDs
Duration                                 : 1 h 53 min
Bit rate                                 : 36.2 kb/s
Count of elements                        : 2554
Stream size                              : 29.5 MiB (0%)
Language                                 : English
Default                                  : No
Forced                                   : No
Original source medium                   : Blu-ray

Menu
00:00:00.000                             : en:Chapter 01
00:06:56.416                             : en:Chapter 02
00:07:48.926                             : en:Chapter 03
00:50:28.483                             : en:Chapter 04
00:51:35.300                             : en:Chapter 05
01:09:54.481                             : en:Chapter 06
01:10:50.246                             : en:Chapter 07
01:17:21.386                             : en:Chapter 08
01:18:49.266                             : en:Chapter 09
01:42:16.713                             : en:Chapter 10
01:44:02.694                             : en:Chapter 11
01:46:03.899                             : en:Chapter 12
01:46:44.439                             : en:Chapter 13
01:48:18.116                             : en:Chapter 14
01:48:47.062                             : en:Chapter 15




本帖子中包含更多资源

您需要 登录 才可以下载或查看,没有帐号?立即注册

x
回复

使用道具 举报

0

主题

1050

帖子

538

积分

中级会员

Rank: 3Rank: 3

积分
538
发表于 2022-5-24 10:05:49 | 显示全部楼层
谢谢管理员分享这部老电影的这个最新版本!
回复

使用道具 举报

0

主题

230

帖子

28

积分

新手上路

Rank: 1

积分
28
发表于 2022-5-24 15:42:23 | 显示全部楼层
谢谢楼主分享,下载收藏了
回复

使用道具 举报

0

主题

206

帖子

44

积分

新手上路

Rank: 1

积分
44
发表于 2022-5-24 20:23:14 | 显示全部楼层
非常感谢楼主的分享!好片,辛苦了!
回复

使用道具 举报

0

主题

32

帖子

5

积分

新手上路

Rank: 1

积分
5
发表于 2022-5-26 13:17:44 | 显示全部楼层
非常感谢楼主的分享!
回复

使用道具 举报

1

主题

142

帖子

26

积分

新手上路

Rank: 1

积分
26
发表于 2022-5-27 09:08:48 | 显示全部楼层
谢谢楼主分享
回复

使用道具 举报

您需要登录后才可以回帖 登录 | 立即注册

本版积分规则

为防丢失网站网址,敬请关注官方微信公众号,再也不会迷路!
4K天堂会一路坚持,共建高清电影爱好者的精神家园。

Archiver|手机版|小黑屋|4K电影下载

GMT+8, 2022-7-5 04:49 , Processed in 0.109375 second(s), 20 queries , Gzip On.

Powered by Discuz! X3.4

Copyright © 2001-2020, Tencent Cloud.

快速回复 返回顶部 返回列表