4K天堂

 找回密码
 立即注册
查看: 9490|回复: 744

[毒液2].2021.2160p.BluRay.REMUX.HEVC.DTS-HD.MA.TrueHD.7.1.Atmos-FGT 中字/50GB

  [复制链接]

2594

主题

2650

帖子

4万

积分

管理员

Rank: 9Rank: 9Rank: 9

积分
47689
发表于 2021-12-13 09:43:44 | 显示全部楼层 |阅读模式


◎译  名 毒液2/Venom 2/毒液:屠杀开始/毒液:放纵屠杀/毒液2:屠杀将至/毒液2:屠杀开始/毒魔:血战大屠杀(港)/猛毒2:血蜘蛛(台)
◎片  名 Venom: Let There Be Carnage
◎年  代 2021
◎产  地 美国
◎类  别 动作 / 科幻 / 惊悚
◎语  言 英语
◎上映日期 2021(中国大陆) / 2021-10-01(美国) / 2021-10(英国)
◎豆瓣评分 5.0/10 from 80849 users
◎豆瓣链接 https://movie.douban.com/subject/30382416/
◎片  长 97分钟
◎导  演 安迪·瑟金斯 Andy Serkis
◎编  剧 凯莉·马塞尔 Kelly Marcel / 汤姆·哈迪 Tom Hardy
◎主  演 汤姆·哈迪 Tom Hardy
       伍迪·哈里森 Woody Harrelson
       米歇尔·威廉姆斯 Michelle Williams
       娜奥米·哈里斯 Naomie Harris
       瑞德·斯科特 Reid Scott
       斯蒂芬·格拉汉姆 Stephen Graham
       汤姆·赫兰德 Tom Holland
       里斯·谢尔史密斯 Reece Shearsmith
       肖恩·德兰尼 Sean Delaney
       佩吉·陆 Peggy Lu
       劳伦斯·斯佩尔曼 Laurence Spellman
       杰克·班戴拉 Jack Bandeira
       斯克鲁比斯·皮普 Scroobius Pip
       阿姆·阿勒卡迪 Amrou Al-Kadhi
       斯图尔特·亚历山大 Stewart Alexander
       克里斯托弗戈德温 Christopher Godwin
       格雷戈·洛基特 Greg Lockett
       桑尼·阿什本·瑟金斯 Sonny Ashbourne Serkis
       雷切尔·汉德肖 Rachel Handshaw
       小田部阿基 Akie Kotabe
       埃里克·西格蒙德森 Eric Sigmundsson
       何塞?帕尔马 Jose Palma
       Rosie Marcel Rosie Marcel
       艾略特·凯博尔 Elliot Cable
       威廉·W·巴伯 William W. Barbour
       埃尔文·费利西达 Erwin Felicilda
       露丝·霍洛克斯 Ruth Horrocks
       约翰·洛巴托 John Lobato
       迪索·拉莫斯 Diezel Ramos
       迈克尔·安德鲁·里德 Michael Andrew Reed
       里克·理查森 Rick Richardson
       安珀·西耶娜 Amber Sienna
       艾蒂安·维克 Etienne Vick
       杰茜·维宁 Jessie Vinning
       中川翔子 Sh?ko Nakagawa

◎标  签 漫威 | 毒液 | 科幻 | 美国 | 超级英雄 | 动作 | 2021 | 漫画改编

◎简  介  

  电影讲述了外星共生体“毒液”与宿主埃迪(汤姆·哈迪 饰)这对“最佳拍档”遇上致命反派共生体“卡内奇”(伍迪·哈里森 饰),超级英雄和邪恶反派的宿命之战即将开始。

◎获奖情况

  第7届豆瓣电影年度榜单 ?(2020)
  最值得期待的外语电影(提名)
  
  第6届豆瓣电影年度榜单 ?(2019)
  最值得期待的外语电影(提名)
Video
ID                                       : 1
ID in the original source medium         : 4113 (0x1011)
Format                                   : HEVC
Format/Info                              : High Efficiency Video Coding
Format profile                           : Main [email protected]@High
HDR format                               : Dolby Vision, Version 1.0, dvhe.07.06, BL+EL+RPU, Blu-ray compatible / SMPTE ST 2086, HDR10 compatible
Codec ID                                 : V_MPEGH/ISO/HEVC
Duration                                 : 1 h 37 min
Bit rate                                 : 58.0 Mb/s
Width                                    : 3 840 pixels
Height                                   : 2 160 pixels
Display aspect ratio                     : 16:9
Frame rate mode                          : Constant
Frame rate                               : 23.976 (24000/4KTT189150) FPS
Color space                              : YUV
Chroma subsampling                       : 4:2:0 (Type 2)
Bit depth                                : 10 bits
Bits/(Pixel*Frame)                       : 0.292
Stream size                              : 39.4 GiB (79%)
Language                                 : English
Default                                  : No
Forced                                   : No
Color range                              : Limited
Color primaries                          : BT.2020
Transfer characteristics                 : PQ
Matrix coefficients                      : BT.2020 non-constant
Mastering display color primaries        : BT.2020
Mastering display luminance              : min: 0.0001 cd/m2, max: 4KTTcd/m2
Maximum Content Light Level              : 7659 cd/m2
Maximum Frame-Average Light Level        : 522 cd/m2
Original source medium                   : Blu-ray

Audio #1
ID                                       : 2
ID in the original source medium         : 4352 (0x14KTT
Format                                   : MLP FBA 16-ch
Format/Info                              : Meridian Lossless Packing FBA with 16-channel presentation
Commercial name                          : Dolby TrueHD with Dolby Atmos
Codec ID                                 : A_TRUEHD
Duration                                 : 1 h 37 min
Bit rate mode                            : Variable
Bit rate                                 : 4 291 kb/s
Maximum bit rate                         : 7 512 kb/s
Channel(s)                               : 8 channels
Channel layout                           : L R C LFE Ls Rs Lb Rb
Sampling rate                            : 48.0 kHz
Frame rate                               : 1 200.000 FPS (40 SPF)
Bit depth                                : 24 bits
Compression mode                         : Lossless
Stream size                              : 2.92 GiB (6%)
Title                                    : TrueHD 7.1 Atmos
Language                                 : English
Default                                  : Yes
Forced                                   : No
Original source medium                   : Blu-ray
Number of dynamic objects                : 11
Bed channel count                        : 1 channel
Bed channel configuration                : LFE

Audio #2
ID                                       : 3
Format                                   : DTS XLL
Format/Info                              : Digital Theater Systems
Commercial name                          : DTS-HD Master Audio
Codec ID                                 : A_DTS
Duration                                 : 1 h 37 min
Bit rate mode                            : Variable
Bit rate                                 : 4 212 kb/s
Channel(s)                               : 8 channels
Channel layout                           : C L R LFE Lb Rb Lss Rss
Sampling rate                            : 48.0 kHz
Frame rate                               : 93.750 FPS (512 SPF)
Bit depth                                : 24 bits
Compression mode                         : Lossless
Stream size                              : 2.86 GiB (6%)
Title                                    : DTS-HD MA 7.1
Language                                 : English
Default                                  : No
Forced                                   : No

Audio #3
ID                                       : 4
ID in the original source medium         : 4352 (0x14KTT
Format                                   : AC-3
Format/Info                              : Audio Coding 3
Commercial name                          : Dolby Digital
Codec ID                                 : A_AC3
Duration                                 : 1 h 37 min
Bit rate mode                            : Constant
Bit rate                                 : 640 kb/s
Channel(s)                               : 6 channels
Channel layout                           : L R C LFE Ls Rs
Sampling rate                            : 48.0 kHz
Frame rate                               : 31.250 FPS (1536 SPF)
Compression mode                         : Lossy
Stream size                              : 445 MiB (1%)
Title                                    : DD 5.1
Language                                 : English
Service kind                             : Complete Main
Default                                  : No
Forced                                   : No
Original source medium                   : Blu-ray

Audio #4
ID                                       : 5
ID in the original source medium         : 4353 (0x1101)
Format                                   : AC-3
Format/Info                              : Audio Coding 3
Commercial name                          : Dolby Digital
Codec ID                                 : A_AC3
Duration                                 : 1 h 37 min
Bit rate mode                            : Constant
Bit rate                                 : 640 kb/s
Channel(s)                               : 6 channels
Channel layout                           : L R C LFE Ls Rs
Sampling rate                            : 48.0 kHz
Frame rate                               : 31.250 FPS (1536 SPF)
Compression mode                         : Lossy
Stream size                              : 445 MiB (1%)
Title                                    : DD 5.1
Language                                 : English
Service kind                             : Complete Main
Default                                  : No
Forced                                   : No
Original source medium                   : Blu-ray

Audio #5
ID                                       : 6
ID in the original source medium         : 4354 (0x1102)
Format                                   : AC-3
Format/Info                              : Audio Coding 3
Commercial name                          : Dolby Digital
Codec ID                                 : A_AC3
Duration                                 : 1 h 37 min
Bit rate mode                            : Constant
Bit rate                                 : 640 kb/s
Channel(s)                               : 6 channels
Channel layout                           : L R C LFE Ls Rs
Sampling rate                            : 48.0 kHz
Frame rate                               : 31.250 FPS (1536 SPF)
Compression mode                         : Lossy
Stream size                              : 445 MiB (1%)
Title                                    : DD 5.1
Language                                 : French
Service kind                             : Complete Main
Default                                  : No
Forced                                   : No
Original source medium                   : Blu-ray

Audio #6
ID                                       : 7
ID in the original source medium         : 4355 (0x1103)
Format                                   : AC-3
Format/Info                              : Audio Coding 3
Commercial name                          : Dolby Digital
Codec ID                                 : A_AC3
Duration                                 : 1 h 37 min
Bit rate mode                            : Constant
Bit rate                                 : 640 kb/s
Channel(s)                               : 6 channels
Channel layout                           : L R C LFE Ls Rs
Sampling rate                            : 48.0 kHz
Frame rate                               : 31.250 FPS (1536 SPF)
Compression mode                         : Lossy
Stream size                              : 445 MiB (1%)
Title                                    : DD 5.1
Language                                 : French
Service kind                             : Complete Main
Default                                  : No
Forced                                   : No
Original source medium                   : Blu-ray

Audio #7
ID                                       : 8
ID in the original source medium         : 4356 (0x1104)
Format                                   : DTS XLL
Format/Info                              : Digital Theater Systems
Commercial name                          : DTS-HD Master Audio
Codec ID                                 : A_DTS
Duration                                 : 1 h 37 min
Bit rate mode                            : Variable
Bit rate                                 : 2 365 kb/s
Channel(s)                               : 6 channels
Channel layout                           : C L R Ls Rs LFE
Sampling rate                            : 48.0 kHz
Frame rate                               : 93.750 FPS (512 SPF)
Bit depth                                : 16 bits
Compression mode                         : Lossless
Stream size                              : 1.61 GiB (3%)
Title                                    : DTS-HD MA 5.1
Language                                 : Portuguese
Default                                  : No
Forced                                   : No
Original source medium                   : Blu-ray

Audio #8
ID                                       : 9
ID in the original source medium         : 4357 (0x1105)
Format                                   : AC-3
Format/Info                              : Audio Coding 3
Commercial name                          : Dolby Digital
Codec ID                                 : A_AC3
Duration                                 : 1 h 37 min
Bit rate mode                            : Constant
Bit rate                                 : 640 kb/s
Channel(s)                               : 6 channels
Channel layout                           : L R C LFE Ls Rs
Sampling rate                            : 48.0 kHz
Frame rate                               : 31.250 FPS (1536 SPF)
Compression mode                         : Lossy
Stream size                              : 445 MiB (1%)
Title                                    : DD 5.1
Language                                 : Portuguese
Service kind                             : Complete Main
Default                                  : No
Forced                                   : No
Original source medium                   : Blu-ray

Audio #9
ID                                       : 10
ID in the original source medium         : 4358 (0x1106)
Format                                   : AC-3
Format/Info                              : Audio Coding 3
Commercial name                          : Dolby Digital
Codec ID                                 : A_AC3
Duration                                 : 1 h 37 min
Bit rate mode                            : Constant
Bit rate                                 : 640 kb/s
Channel(s)                               : 6 channels
Channel layout                           : L R C LFE Ls Rs
Sampling rate                            : 48.0 kHz
Frame rate                               : 31.250 FPS (1536 SPF)
Compression mode                         : Lossy
Stream size                              : 445 MiB (1%)
Title                                    : DD 5.1
Language                                 : Spanish
Service kind                             : Complete Main
Default                                  : No
Forced                                   : No
Original source medium                   : Blu-ray

Audio #10
ID                                       : 11
ID in the original source medium         : 4359 (0x1107)
Format                                   : AC-3
Format/Info                              : Audio Coding 3
Commercial name                          : Dolby Digital
Codec ID                                 : A_AC3
Duration                                 : 1 h 37 min
Bit rate mode                            : Constant
Bit rate                                 : 640 kb/s
Channel(s)                               : 6 channels
Channel layout                           : L R C LFE Ls Rs
Sampling rate                            : 48.0 kHz
Frame rate                               : 31.250 FPS (1536 SPF)
Compression mode                         : Lossy
Stream size                              : 445 MiB (1%)
Title                                    : DD 5.1
Language                                 : Thai
Service kind                             : Complete Main
Default                                  : No
Forced                                   : No
Original source medium                   : Blu-ray

Text #1
ID                                       : 12
Format                                   : UTF-8
Codec ID                                 : S_TEXT/UTF8
Codec ID/Info                            : UTF-8 Plain Text
Duration                                 : 1 h 35 min
Bit rate                                 : 58 b/s
Count of elements                        : 1278
Stream size                              : 41.2 KiB (0%)
Language                                 : English
Default                                  : Yes
Forced                                   : No

Text #2
ID                                       : 13
Format                                   : UTF-8
Codec ID                                 : S_TEXT/UTF8
Codec ID/Info                            : UTF-8 Plain Text
Duration                                 : 1 h 36 min
Bit rate                                 : 69 b/s
Count of elements                        : 1568
Stream size                              : 48.9 KiB (0%)
Title                                    : SDH
Language                                 : English
Default                                  : No
Forced                                   : No

Text #3
ID                                       : 14
ID in the original source medium         : 4768 (0x12A0)
Format                                   : PGS
Muxing mode                              : zlib
Codec ID                                 : S_HDMV/PGS
Codec ID/Info                            : Picture based subtitle format used on BDs/HD-DVDs
Duration                                 : 1 h 36 min
Bit rate                                 : 43.5 kb/s
Count of elements                        : 3258
Stream size                              : 30.1 MiB (0%)
Language                                 : English
Default                                  : No
Forced                                   : No
Original source medium                   : Blu-ray

Text #4
ID                                       : 15
ID in the original source medium         : 4769 (0x12A1)
Format                                   : PGS
Muxing mode                              : zlib
Codec ID                                 : S_HDMV/PGS
Codec ID/Info                            : Picture based subtitle format used on BDs/HD-DVDs
Duration                                 : 1 h 27 min
Bit rate                                 : 31.9 kb/s
Count of elements                        : 2252
Stream size                              : 19.9 MiB (0%)
Language                                 : English
Default                                  : No
Forced                                   : No
Original source medium                   : Blu-ray

Text #5
ID                                       : 16
ID in the original source medium         : 4770 (0x12A2)
Format                                   : PGS
Muxing mode                              : zlib
Codec ID                                 : S_HDMV/PGS
Codec ID/Info                            : Picture based subtitle format used on BDs/HD-DVDs
Duration                                 : 1 h 36 min
Bit rate                                 : 23.0 kb/s
Count of elements                        : 2254
Stream size                              : 15.8 MiB (0%)
Language                                 : Chinese
Default                                  : No
Forced                                   : No
Original source medium                   : Blu-ray

Text #6
ID                                       : 17
ID in the original source medium         : 4771 (0x12A3)
Format                                   : PGS
Muxing mode                              : zlib
Codec ID                                 : S_HDMV/PGS
Codec ID/Info                            : Picture based subtitle format used on BDs/HD-DVDs
Duration                                 : 1 h 36 min
Bit rate                                 : 23.4 kb/s
Count of elements                        : 2238
Stream size                              : 16.1 MiB (0%)
Language                                 : Chinese
Default                                  : No
Forced                                   : No
Original source medium                   : Blu-ray

Text #7
ID                                       : 18
ID in the original source medium         : 4772 (0x12A4)
Format                                   : PGS
Muxing mode                              : zlib
Codec ID                                 : S_HDMV/PGS
Codec ID/Info                            : Picture based subtitle format used on BDs/HD-DVDs
Duration                                 : 1 h 36 min
Bit rate                                 : 22.5 kb/s
Count of elements                        : 2228
Stream size                              : 15.5 MiB (0%)
Language                                 : Chinese
Default                                  : No
Forced                                   : No
Original source medium                   : Blu-ray

Text #8
ID                                       : 19
ID in the original source medium         : 4773 (0x12A5)
Format                                   : PGS
Muxing mode                              : zlib
Codec ID                                 : S_HDMV/PGS
Codec ID/Info                            : Picture based subtitle format used on BDs/HD-DVDs
Duration                                 : 1 h 36 min
Bit rate                                 : 26.6 kb/s
Count of elements                        : 2112
Stream size                              : 18.3 MiB (0%)
Language                                 : French
Default                                  : No
Forced                                   : No
Original source medium                   : Blu-ray

Text #9
ID                                       : 20
ID in the original source medium         : 4774 (0x12A6)
Format                                   : PGS
Muxing mode                              : zlib
Codec ID                                 : S_HDMV/PGS
Codec ID/Info                            : Picture based subtitle format used on BDs/HD-DVDs
Duration                                 : 1 h 36 min
Bit rate                                 : 29.5 kb/s
Count of elements                        : 2200
Stream size                              : 20.2 MiB (0%)
Language                                 : Indonesian
Default                                  : No
Forced                                   : No
Original source medium                   : Blu-ray

Text #10
ID                                       : 21
ID in the original source medium         : 4775 (0x12A7)
Format                                   : PGS
Muxing mode                              : zlib
Codec ID                                 : S_HDMV/PGS
Codec ID/Info                            : Picture based subtitle format used on BDs/HD-DVDs
Duration                                 : 1 h 35 min
Bit rate                                 : 21.7 kb/s
Count of elements                        : 2251
Stream size                              : 14.9 MiB (0%)
Language                                 : Korean
Default                                  : No
Forced                                   : No
Original source medium                   : Blu-ray

Text #11
ID                                       : 22
ID in the original source medium         : 4776 (0x12A8)
Format                                   : PGS
Muxing mode                              : zlib
Codec ID                                 : S_HDMV/PGS
Codec ID/Info                            : Picture based subtitle format used on BDs/HD-DVDs
Duration                                 : 1 h 36 min
Bit rate                                 : 30.5 kb/s
Count of elements                        : 2208
Stream size                              : 21.0 MiB (0%)
Language                                 : Malay
Default                                  : No
Forced                                   : No
Original source medium                   : Blu-ray

Text #12
ID                                       : 23
ID in the original source medium         : 4777 (0x12A9)
Format                                   : PGS
Muxing mode                              : zlib
Codec ID                                 : S_HDMV/PGS
Codec ID/Info                            : Picture based subtitle format used on BDs/HD-DVDs
Duration                                 : 1 h 36 min
Bit rate                                 : 27.5 kb/s
Count of elements                        : 2154
Stream size                              : 18.9 MiB (0%)
Language                                 : Portuguese
Default                                  : No
Forced                                   : No
Original source medium                   : Blu-ray

Text #13
ID                                       : 24
ID in the original source medium         : 4777 (0x12A9)
Format                                   : PGS
Muxing mode                              : zlib
Codec ID                                 : S_HDMV/PGS
Codec ID/Info                            : Picture based subtitle format used on BDs/HD-DVDs
Duration                                 : 1 h 36 min
Bit rate                                 : 386 b/s
Count of elements                        : 24
Stream size                              : 272 KiB (0%)
Language                                 : Portuguese
Default                                  : No
Forced                                   : No
Original source medium                   : Blu-ray

Text #14
ID                                       : 25
ID in the original source medium         : 4778 (0x12AA)
Format                                   : PGS
Muxing mode                              : zlib
Codec ID                                 : S_HDMV/PGS
Codec ID/Info                            : Picture based subtitle format used on BDs/HD-DVDs
Duration                                 : 1 h 36 min
Bit rate                                 : 26.4 kb/s
Count of elements                        : 2174
Stream size                              : 18.1 MiB (0%)
Language                                 : Spanish
Default                                  : No
Forced                                   : No
Original source medium                   : Blu-ray

Text #15
ID                                       : 26
ID in the original source medium         : 4778 (0x12AA)
Format                                   : PGS
Muxing mode                              : zlib
Codec ID                                 : S_HDMV/PGS
Codec ID/Info                            : Picture based subtitle format used on BDs/HD-DVDs
Duration                                 : 1 h 36 min
Bit rate                                 : 625 b/s
Count of elements                        : 38
Stream size                              : 440 KiB (0%)
Language                                 : Spanish
Default                                  : No
Forced                                   : No
Original source medium                   : Blu-ray

Text #16
ID                                       : 27
ID in the original source medium         : 4779 (0x12AB)
Format                                   : PGS
Muxing mode                              : zlib
Codec ID                                 : S_HDMV/PGS
Codec ID/Info                            : Picture based subtitle format used on BDs/HD-DVDs
Duration                                 : 1 h 36 min
Bit rate                                 : 27.3 kb/s
Count of elements                        : 2250
Stream size                              : 18.7 MiB (0%)
Language                                 : Thai
Default                                  : No
Forced                                   : No
Original source medium                   : Blu-ray

Text #17
ID                                       : 28
ID in the original source medium         : 4780 (0x12AC)
Format                                   : PGS
Muxing mode                              : zlib
Codec ID                                 : S_HDMV/PGS
Codec ID/Info                            : Picture based subtitle format used on BDs/HD-DVDs
Duration                                 : 1 h 36 min
Bit rate                                 : 268 b/s
Count of elements                        : 18
Stream size                              : 189 KiB (0%)
Language                                 : French
Default                                  : No
Forced                                   : No
Original source medium                   : Blu-ray

Text #18
ID                                       : 29
ID in the original source medium         : 4780 (0x12AC)
Format                                   : PGS
Muxing mode                              : zlib
Codec ID                                 : S_HDMV/PGS
Codec ID/Info                            : Picture based subtitle format used on BDs/HD-DVDs
Duration                                 : 1 h 36 min
Bit rate                                 : 268 b/s
Count of elements                        : 18
Stream size                              : 189 KiB (0%)
Language                                 : French
Default                                  : No
Forced                                   : No
Original source medium                   : Blu-ray

Menu
00:00:00.000                             : en:Chapter 01
00:05:24.741                             : en:Chapter 02
00:09:33.239                             : en:Chapter 03
00:12:20.406                             : en:Chapter 04
00:18:23.435                             : en:Chapter 05
00:23:00.837                             : en:Chapter 06
00:30:17.816                             : en:Chapter 07
00:35:03.392                             : en:Chapter 08
00:39:26.781                             : en:Chapter 09
00:45:34.940                             : en:Chapter 10
00:50:40.037                             : en:Chapter 11
00:55:29.701                             : en:Chapter 12
01:01:00.657                             : en:Chapter 13
01:06:57.638                             : en:Chapter 14
01:14:36.680                             : en:Chapter 15
01:21:58.038                             : en:Chapter 16





本帖子中包含更多资源

您需要 登录 才可以下载或查看,没有帐号?立即注册

x
回复

使用道具 举报

0

主题

7

帖子

3

积分

新手上路

Rank: 1

积分
3
发表于 2021-12-16 00:55:36 | 显示全部楼层
我是新手,多多指教,谢谢!
回复

使用道具 举报

0

主题

138

帖子

36

积分

新手上路

Rank: 1

积分
36
发表于 2021-12-16 04:52:40 | 显示全部楼层
小孩期待已久,马上下
回复

使用道具 举报

0

主题

196

帖子

52

积分

初级会员

Rank: 2

积分
52
发表于 2021-12-16 06:02:31 | 显示全部楼层
感谢楼主分享
回复

使用道具 举报

0

主题

158

帖子

38

积分

新手上路

Rank: 1

积分
38
发表于 2021-12-16 07:24:20 | 显示全部楼层
感谢楼主分享
回复

使用道具 举报

0

主题

539

帖子

95

积分

初级会员

Rank: 2

积分
95
发表于 2021-12-16 08:23:35 | 显示全部楼层
tttttttttttttttttttttttttttttttttttt....tt
回复

使用道具 举报

0

主题

114

帖子

116

积分

初级会员

Rank: 2

积分
116
发表于 2021-12-16 08:45:59 | 显示全部楼层
非常好的资源
回复

使用道具 举报

0

主题

81

帖子

30

积分

新手上路

Rank: 1

积分
30
发表于 2021-12-16 08:48:40 | 显示全部楼层
期待已久,马上下载
回复

使用道具 举报

0

主题

4

帖子

1

积分

新手上路

Rank: 1

积分
1
发表于 2021-12-16 11:14:25 | 显示全部楼层
感谢分享。。。。。。。
回复

使用道具 举报

0

主题

47

帖子

13

积分

新手上路

Rank: 1

积分
13
发表于 2021-12-16 11:27:00 | 显示全部楼层
谢谢楼主分享!!!!!!
回复

使用道具 举报

您需要登录后才可以回帖 登录 | 立即注册

本版积分规则

为防丢失网站网址,敬请关注官方微信公众号,再也不会迷路!
4K天堂会一路坚持,共建高清电影爱好者的精神家园。

Archiver|手机版|小黑屋|4K电影下载

GMT+8, 2022-7-5 05:51 , Processed in 0.125000 second(s), 21 queries , Gzip On.

Powered by Discuz! X3.4

Copyright © 2001-2020, Tencent Cloud.

快速回复 返回顶部 返回列表