4K天堂

 找回密码
 立即注册
查看: 595|回复: 20

[Remux] [新王加冕]Born.a.Champion.2021.1080p.BluRay.REMUX.AVC.DTS-HD.MA.5.1-FGT 30.49GB

[复制链接]

911

主题

912

帖子

4639

积分

版主

Rank: 7Rank: 7Rank: 7

积分
4639
发表于 2021-1-18 22:00:29 | 显示全部楼层 |阅读模式

◎译  名 新王加冕/Mickey Kelley
◎片  名 Born a Champion
◎年  代 2020
◎产  地 美国
◎类  别 剧情 / 动作
◎语  言 英语
◎上映日期 2021-01-22(美国)
◎IMDb链接 https://www.imdb.com/title/tt10661710/
◎豆瓣评分 /10 from 0 users
◎蓝光高清   http://www.4ktt.com
◎导  演 亚历克斯·兰阿瑞佛罗 Alex Ranarivelo
◎编  剧 肖恩·派特里克·弗兰纳里 Sean Patrick Flanery / 亚历克斯·兰阿瑞佛罗 Alex Ranarivelo
◎主  演 丹尼斯·奎德 Dennis Quaid
      卡特里娜·宝登 Katrina Bowden
      肖恩·派特里克·弗兰纳里 Sean Patrick Flanery
      库里·格拉汉姆 Currie Graham

◎标  签 音 | 电影

◎简  介
  Mickey Kelley ,one of the first American black belts in Brazilian jiu-jitsu, who gets pulled away from everything he loves and into an unsanctioned MMA tournament.
Video
ID : 1
ID in the original source medium : 4113 (0x1011)
Format : AVC
Format/Info : Advanced Video Codec
Format profile : [email protected]
Format settings : CABAC / 4 Ref Frames
Format settings, CABAC : Yes
Format settings, Reference frames : 4 frames
Codec ID : V_MPEG4/ISO/AVC
Duration : 1 h 51 min
Bit rate mode : Variable
Bit rate : 35.5 Mb/s
Maximum bit rate : 37.0 Mb/s
Width : 1 920 pixels
Height : 1 080 pixels
Display aspect ratio : 16:9
Frame rate mode : Constant
Frame rate : 23.976 (24000/1001/189150) FPS
Color space : YUV
Chroma subsampling : 4:2:0
Bit depth : 8 bits
Scan type : Progressive
Bits/(Pixel*Frame) : 0.714
Stream size : 27.7 GiB (91%)
Language : English
Default : No
Forced : No
Original source medium : Blu-ray

Audio #1
ID : 2
ID in the original source medium : 4352 (0x1100)
Format : DTS XLL
Format/Info : Digital Theater Systems
Commercial name : DTS-HD Master Audio
Codec ID : A_DTS
Duration : 1 h 51 min
Bit rate mode : Variable
Bit rate : 3 393 kb/s
Channel(s) : 6 channels
Channel layout : C L R Ls Rs LFE
Sampling rate : 48.0 kHz
Frame rate : 93.750 FPS (512 SPF)
Bit depth : 24 bits
Compression mode : Lossless
Stream size : 2.65 GiB (9%)
Title : DTS-HD MA 5.1
Language : English
Default : Yes
Forced : No
Original source medium : Blu-ray

Audio #2
ID : 3
ID in the original source medium : 4353 (0x1101)
Format : AC-3
Format/Info : Audio Coding 3
Commercial name : Dolby Digital
Codec ID : A_AC3
Duration : 1 h 51 min
Bit rate mode : Constant
Bit rate : 192 kb/s
Channel(s) : 2 channels
Channel layout : L R
Sampling rate : 48.0 kHz
Frame rate : 31.250 FPS (1536 SPF)
Compression mode : Lossy
Stream size : 153 MiB (0%)
Title : DD 2.0
Language : English
Service kind : Complete Main
Default : No
Forced : No
Original source medium : Blu-ray

Text #1
ID : 4
Format : UTF-8
Codec ID : S_TEXT/UTF8
Codec ID/Info : UTF-8 Plain Text
Duration : 1 h 46 min
Bit rate : 73 b/s
Count of elements : 1691
Stream size : 57.8 KiB (0%)
Title : English-SRT
Language : English
Default : Yes
Forced : No

Text #2
ID : 5
ID in the original source medium : 4608 (0x1200)
Format : PGS
Muxing mode : zlib
Codec ID : S_HDMV/PGS
Codec ID/Info : Picture based subtitle format used on BDs/HD-DVDs
Duration : 1 h 46 min
Bit rate : 49.0 kb/s
Count of elements : 3622
Stream size : 37.4 MiB (0%)
Title : English-PGS
Language : English
Default : No
Forced : No
Original source medium : Blu-ray

Text #3
ID : 6
ID in the original source medium : 4609 (0x1201)
Format : PGS
Muxing mode : zlib
Codec ID : S_HDMV/PGS
Codec ID/Info : Picture based subtitle format used on BDs/HD-DVDs
Duration : 1 h 50 min
Bit rate : 41.5 kb/s
Count of elements : 3218
Stream size : 32.9 MiB (0%)
Title : Spanish-PGS
Language : Spanish
Default : No
Forced : No
Original source medium : Blu-ray

Text #4
ID : 7
ID in the original source medium : 4610 (0x1202)
Format : PGS
Muxing mode : zlib
Codec ID : S_HDMV/PGS
Codec ID/Info : Picture based subtitle format used on BDs/HD-DVDs
Duration : 1 h 26 min
Bit rate : 299 b/s
Count of elements : 22
Stream size : 190 KiB (0%)
Title : English-FORCED-PGS
Language : English
Default : No
Forced : No
Original source medium : Blu-ray

Text #5
ID : 8
ID in the original source medium : 4610 (0x1202)
Format : PGS
Muxing mode : zlib
Codec ID : S_HDMV/PGS
Codec ID/Info : Picture based subtitle format used on BDs/HD-DVDs
Duration : 1 h 26 min
Bit rate : 299 b/s
Count of elements : 22
Stream size : 190 KiB (0%)
Title : English-FORCED-PGS
Language : English
Default : No
Forced : No
Original source medium : Blu-ray

Menu
00:00:00.000 : en:Chapter 01
00:09:07.547 : en:Chapter 02
00:16:48.924 : en:Chapter 03
00:22:37.773 : en:Chapter 04
00:28:46.766 : en:Chapter 05
00:33:09.988 : en:Chapter 06
00:38:53.372 : en:Chapter 07
00:49:13.450 : en:Chapter 08
00:55:45.550 : en:Chapter 09
01:01:05.870 : en:Chapter 10
01:08:13.881 : en:Chapter 11
01:14:09.778 : en:Chapter 12
01:20:16.311 : en:Chapter 13
01:26:21.301 : en:Chapter 14
01:30:38.099 : en:Chapter 15
01:45:46.673 : en:Chapter 16




本帖子中包含更多资源

您需要 登录 才可以下载或查看,没有帐号?立即注册

x
回复

使用道具 举报

0

主题

159

帖子

27

积分

新手上路

Rank: 1

积分
27
发表于 2021-1-19 23:08:11 | 显示全部楼层
谢谢楼主分享
回复

使用道具 举报

0

主题

11

帖子

2

积分

新手上路

Rank: 1

积分
2
发表于 2021-1-20 11:20:35 | 显示全部楼层
谢谢提供资源,支持楼主,期待更好的。。
回复

使用道具 举报

1

主题

1736

帖子

592

积分

中级会员

Rank: 3Rank: 3

积分
592
发表于 2021-1-20 14:24:45 | 显示全部楼层
谢谢楼主分享
回复

使用道具 举报

0

主题

550

帖子

311

积分

初级会员

Rank: 2

积分
311
发表于 2021-1-20 18:55:08 | 显示全部楼层
谢谢楼主的无私分享
回复

使用道具 举报

0

主题

88

帖子

27

积分

新手上路

Rank: 1

积分
27
发表于 2021-1-20 23:14:16 | 显示全部楼层
谢谢楼主分享
回复

使用道具 举报

0

主题

938

帖子

362

积分

初级会员

Rank: 2

积分
362
发表于 2021-1-21 09:24:44 | 显示全部楼层
太好啦&萬分感謝版主的無私發佈分享%
回复

使用道具 举报

0

主题

46

帖子

43

积分

新手上路

Rank: 1

积分
43
发表于 2021-1-21 10:33:56 | 显示全部楼层
太好啦&萬分感謝版主的無私發佈分享
回复

使用道具 举报

0

主题

70

帖子

46

积分

新手上路

Rank: 1

积分
46
发表于 2021-1-21 20:16:28 | 显示全部楼层
感谢您!!!
回复

使用道具 举报

0

主题

5

帖子

2

积分

新手上路

Rank: 1

积分
2
发表于 2021-1-21 21:13:56 | 显示全部楼层

谢谢提供资源,支持楼主,期待更好的。
回复

使用道具 举报

您需要登录后才可以回帖 登录 | 立即注册

本版积分规则

为防丢失网站网址,敬请关注官方微信公众号,再也不会迷路!
4K天堂会一路坚持,共建高清电影爱好者的精神家园。

QQ|Archiver|手机版|小黑屋|4K电影下载

GMT+8, 2021-3-1 03:33 , Processed in 0.140625 second(s), 20 queries , Gzip On.

Powered by Discuz! X3.4

Copyright © 2001-2020, Tencent Cloud.

快速回复 返回顶部 返回列表