4K天堂

 找回密码
 立即注册
查看: 750|回复: 25

[Remux] [来玩]Come.Play.2020.1080p.BluRay.REMUX.AVC.DTS-HD.MA.5.1-FGT 27.22GB

[复制链接]

911

主题

912

帖子

4639

积分

版主

Rank: 7Rank: 7Rank: 7

积分
4639
发表于 2021-1-19 10:12:52 | 显示全部楼层 |阅读模式

◎译  名 来玩/Larry/怪奇默友(港)/拉里/鬼游戏(台)
◎片  名 Come Play
◎年  代 2020
◎产  地 美国
◎类  别 恐怖 / 家庭 / 奇幻
◎语  言 英语
◎上映日期 2020-10-30(美国)
◎IMDb评分 5.7/10 from 6055 users
◎IMDb链接 https://www.imdb.com/title/tt8004664/
◎豆瓣评分 6.1/10 from 2569 users
◎蓝光高清   http://www.4ktt.com
◎片  长 97分钟
◎导  演 雅各布·蔡斯 Jacob Chase
◎编  剧 雅各布·蔡斯 Jacob Chase
◎主  演 艾奇·罗伯逊 Azhy Robertson
      吉莉安·雅各布斯 Gillian Jacobs
      小约翰·加拉赫 John Gallagher Jr.
      温斯洛·费格雷 Winslow Fegley
      杰登·马林 Jayden Marine
      加文·麦基弗·赖特 Gavin MacIver-Wright
      蕾切尔·威尔森 Rachel Wilson
      阿拉娜·阿什利·马奎斯 Alana-Ashley Marques
      达尔默·阿泽德 Dalmar Abuzeid
      伊斯汗·莫里斯 Ishan Morris
      埃博妮·布斯 Eboni Booth
      安娜·阿劳约 Ana Araujo
      凯特·芬顿 Kate Fenton

◎标  签 恐怖 | 惊悚 | 美国 | 怪物 | 2020 | 电影 | 家庭 | 短片改编

◎简  介
  孤单的小男孩Olive(艾奇·罗伯逊 饰),他觉得自己处处异于其他人。他很想要交朋友,于是他花很多时间在手机和平版上。当一个神秘的生物想要透过Oliver的手机和平板来进入我们的世界,Oliver的父母(吉莉安·雅各布斯 Gillia nJacobs、小约翰·加拉赫 John Gallagher Jr. 饰)必须挺身而出,将儿子从神秘生物的手中救出。
Video
ID : 1
ID in the original source medium : 4113 (0x1011)
Format : AVC
Format/Info : Advanced Video Codec
Format profile : [email protected]
Format settings : CABAC / 4 Ref Frames
Format settings, CABAC : Yes
Format settings, Reference frames : 4 frames
Codec ID : V_MPEG4/ISO/AVC
Duration : 1 h 36 min
Bit rate mode : Variable
Bit rate : 35.4 Mb/s
Maximum bit rate : 38.0 Mb/s
Width : 1 920 pixels
Height : 1 080 pixels
Display aspect ratio : 16:9
Frame rate mode : Constant
Frame rate : 23.976 (24000/1001/189150) FPS
Color space : YUV
Chroma subsampling : 4:2:0
Bit depth : 8 bits
Scan type : Progressive
Bits/(Pixel*Frame) : 0.711
Stream size : 23.8 GiB (88%)
Language : English
Default : No
Forced : No
Original source medium : Blu-ray

Audio #1
ID : 2
ID in the original source medium : 4352 (0x1100)
Format : DTS XLL
Format/Info : Digital Theater Systems
Commercial name : DTS-HD Master Audio
Codec ID : A_DTS
Duration : 1 h 36 min
Bit rate mode : Variable
Bit rate : 3 241 kb/s
Channel(s) : 6 channels
Channel layout : C L R Ls Rs LFE
Sampling rate : 48.0 kHz
Frame rate : 93.750 FPS (512 SPF)
Bit depth : 24 bits
Compression mode : Lossless
Stream size : 2.18 GiB (8%)
Title : DTS-HD MA 5.1
Language : English
Default : Yes
Forced : No
Original source medium : Blu-ray

Audio #2
ID : 3
ID in the original source medium : 4354 (0x1102)
Format : DTS
Format/Info : Digital Theater Systems
Codec ID : A_DTS
Duration : 1 h 36 min
Bit rate mode : Constant
Bit rate : 768 kb/s
Channel(s) : 6 channels
Channel layout : C L R Ls Rs LFE
Sampling rate : 48.0 kHz
Frame rate : 93.750 FPS (512 SPF)
Bit depth : 24 bits
Compression mode : Lossy
Stream size : 530 MiB (2%)
Title : DTS 5.1
Language : French
Default : No
Forced : No
Original source medium : Blu-ray

Audio #3
ID : 4
ID in the original source medium : 4355 (0x1103)
Format : AC-3
Format/Info : Audio Coding 3
Commercial name : Dolby Digital
Codec ID : A_AC3
Duration : 1 h 36 min
Bit rate mode : Constant
Bit rate : 192 kb/s
Channel(s) : 2 channels
Channel layout : L R
Sampling rate : 48.0 kHz
Frame rate : 31.250 FPS (1536 SPF)
Compression mode : Lossy
Stream size : 133 MiB (0%)
Title : DD 2.0
Language : English
Service kind : Complete Main
Default : No
Forced : No
Original source medium : Blu-ray

Audio #4
ID : 5
ID in the original source medium : 4353 (0x1101)
Format : DTS
Format/Info : Digital Theater Systems
Codec ID : A_DTS
Duration : 1 h 36 min
Bit rate mode : Constant
Bit rate : 768 kb/s
Channel(s) : 6 channels
Channel layout : C L R Ls Rs LFE
Sampling rate : 48.0 kHz
Frame rate : 93.750 FPS (512 SPF)
Bit depth : 24 bits
Compression mode : Lossy
Stream size : 530 MiB (2%)
Title : DTS 5.1
Language : Spanish
Default : No
Forced : No
Original source medium : Blu-ray

Text #1
ID : 6
Format : UTF-8
Codec ID : S_TEXT/UTF8
Codec ID/Info : UTF-8 Plain Text
Duration : 1 h 31 min
Bit rate : 32 b/s
Count of elements : 773
Stream size : 21.6 KiB (0%)
Title : English-SRT
Language : English
Default : Yes
Forced : No

Text #2
ID : 7
ID in the original source medium : 4608 (0x1200)
Format : PGS
Muxing mode : zlib
Codec ID : S_HDMV/PGS
Codec ID/Info : Picture based subtitle format used on BDs/HD-DVDs
Duration : 1 h 31 min
Bit rate : 26.7 kb/s
Count of elements : 1956
Stream size : 17.5 MiB (0%)
Title : English-PGS
Language : English
Default : No
Forced : No
Original source medium : Blu-ray

Text #3
ID : 8
ID in the original source medium : 4609 (0x1201)
Format : PGS
Muxing mode : zlib
Codec ID : S_HDMV/PGS
Codec ID/Info : Picture based subtitle format used on BDs/HD-DVDs
Duration : 1 h 35 min
Bit rate : 18.8 kb/s
Count of elements : 1522
Stream size : 12.9 MiB (0%)
Title : Spanish-PGS
Language : Spanish
Default : No
Forced : No
Original source medium : Blu-ray

Text #4
ID : 9
ID in the original source medium : 4610 (0x1202)
Format : PGS
Muxing mode : zlib
Codec ID : S_HDMV/PGS
Codec ID/Info : Picture based subtitle format used on BDs/HD-DVDs
Duration : 1 h 35 min
Bit rate : 18.7 kb/s
Count of elements : 1520
Stream size : 12.8 MiB (0%)
Title : French-PGS
Language : French
Default : No
Forced : No
Original source medium : Blu-ray

Text #5
ID : 10
ID in the original source medium : 4611 (0x1203)
Format : PGS
Muxing mode : zlib
Codec ID : S_HDMV/PGS
Codec ID/Info : Picture based subtitle format used on BDs/HD-DVDs
Duration : 1 h 35 min
Bit rate : 269 b/s
Count of elements : 18
Stream size : 189 KiB (0%)
Title : Spanish-FORCED-PGS
Language : Spanish
Default : No
Forced : No
Original source medium : Blu-ray

Text #6
ID : 11
ID in the original source medium : 4612 (0x1204)
Format : PGS
Muxing mode : zlib
Codec ID : S_HDMV/PGS
Codec ID/Info : Picture based subtitle format used on BDs/HD-DVDs
Duration : 1 h 35 min
Bit rate : 1 395 b/s
Count of elements : 130
Stream size : 978 KiB (0%)
Title : French-FORCED-PGS
Language : French
Default : No
Forced : No
Original source medium : Blu-ray

Menu
00:00:00.000 : en:Chapter 01
00:03:50.855 : en:Chapter 02
00:09:51.007 : en:Chapter 03
00:15:32.222 : en:Chapter 04
00:18:03.165 : en:Chapter 05
00:23:24.403 : en:Chapter 06
00:28:58.027 : en:Chapter 07
00:37:23.241 : en:Chapter 08
00:43:15.843 : en:Chapter 09
00:48:22.941 : en:Chapter 10
00:50:11.216 : en:Chapter 11
00:56:25.507 : en:Chapter 12
00:58:37.764 : en:Chapter 13
01:02:21.028 : en:Chapter 14
01:07:30.504 : en:Chapter 15
01:12:48.739 : en:Chapter 16
01:20:33.662 : en:Chapter 17
01:27:21.444 : en:Chapter 18
01:29:42.418 : en:Chapter 19
01:32:22.495 : en:Chapter 20





本帖子中包含更多资源

您需要 登录 才可以下载或查看,没有帐号?立即注册

x
回复

使用道具 举报

0

主题

197

帖子

230

积分

初级会员

Rank: 2

积分
230
发表于 2021-1-20 06:56:28 | 显示全部楼层
谢谢提供资源,支持楼主,期待更好的。。
回复

使用道具 举报

0

主题

736

帖子

226

积分

初级会员

Rank: 2

积分
226
发表于 2021-1-20 08:17:43 | 显示全部楼层
谢谢,有你们更精彩!!!
回复

使用道具 举报

1

主题

1736

帖子

592

积分

中级会员

Rank: 3Rank: 3

积分
592
发表于 2021-1-20 08:30:34 | 显示全部楼层
谢谢楼主分享
回复

使用道具 举报

0

主题

938

帖子

362

积分

初级会员

Rank: 2

积分
362
发表于 2021-1-20 08:34:36 | 显示全部楼层
太好啦&萬分感謝版主的無私發佈分享%
回复

使用道具 举报

0

主题

437

帖子

215

积分

初级会员

Rank: 2

积分
215
发表于 2021-1-20 08:44:17 | 显示全部楼层
谢谢分享,顶你!!!
回复

使用道具 举报

0

主题

82

帖子

89

积分

初级会员

Rank: 2

积分
89
发表于 2021-1-20 09:00:41 | 显示全部楼层
看看这个版本,谢谢分享了
回复

使用道具 举报

0

主题

11

帖子

2

积分

新手上路

Rank: 1

积分
2
发表于 2021-1-20 11:19:23 | 显示全部楼层
谢谢提供资源,支持楼主,期待更好的。。
回复

使用道具 举报

0

主题

1710

帖子

438

积分

初级会员

Rank: 2

积分
438
发表于 2021-1-20 15:24:48 | 显示全部楼层
谢谢楼主分享
回复

使用道具 举报

0

主题

2

帖子

2

积分

新手上路

Rank: 1

积分
2
发表于 2021-1-20 15:56:59 | 显示全部楼层
谢谢提供资源,支持楼主.
回复

使用道具 举报

您需要登录后才可以回帖 登录 | 立即注册

本版积分规则

为防丢失网站网址,敬请关注官方微信公众号,再也不会迷路!
4K天堂会一路坚持,共建高清电影爱好者的精神家园。

QQ|Archiver|手机版|小黑屋|4K电影下载

GMT+8, 2021-3-1 02:31 , Processed in 0.140625 second(s), 20 queries , Gzip On.

Powered by Discuz! X3.4

Copyright © 2001-2020, Tencent Cloud.

快速回复 返回顶部 返回列表