4K天堂

 找回密码
 立即注册
查看: 1469|回复: 82

[雪人往事/冰雪奇缘番外短片]2020.HDR.2160p.WEB.h265-KOGi 976.92MB

  [复制链接]

1596

主题

1624

帖子

3万

积分

管理员

Rank: 9Rank: 9Rank: 9

积分
31345
发表于 2021-1-18 21:50:05 | 显示全部楼层 |阅读模式
◎译  名 雪人往事/冰雪奇缘番外短片
◎片  名 Once Upon a Snowman
◎年  代 2020
◎产  地 美国
◎类  别 动画 / 短片 / 家庭 / 奇幻 / 冒险
◎语  言 挪威语,英语
◎上映日期 2020-10-23(美国)
◎IMDb评分  7/10 from 1504 users
◎IMDb链接  https://www.imdb.com/title/tt13061790/
◎豆瓣评分 8.3/10 from 376 users
◎4K电影下载  http://www.4ktt.com
◎片  长 8分钟
◎主  演 乔什·加德 Josh Gad

◎标  签 短片 | 动画 | 美国 | 2020 | 迪士尼 | 动画短片 | Frozen | Disney

◎简  介
  迪士尼将推出[冰雪奇缘]衍生短片[雪人往事](Once Upon a Snowman,暂译),首款海报同时曝光。从片名与海报可以看出,这是关于雪宝的故事。该片将于10月23日登陆Disney+。
Video
ID                                       : 1
Format                                   : HEVC
Format/Info                              : High Efficiency Video Coding
Format profile                           : Main [email protected]@High
HDR format                               : SMPTE ST 2086, HDR10 compatible
Codec ID                                 : V_MPEGH/ISO/HEVC
Duration                                 : 7 min 35 s
Bit rate                                 : 15.3 Mb/s
Width                                    : 3 840 pixels
Height                                   : 2 160 pixels
Display aspect ratio                     : 16:9
Frame rate mode                          : Constant
Frame rate                               : 23.976 (24000/1001/189150) FPS
Color space                              : YUV
Chroma subsampling                       : 4:2:0
Bit depth                                : 10 bits
Bits/(Pixel*Frame)                       : 0.077
Stream size                              : 830 MiB (95%)
Language                                 : English
Default                                  : Yes
Forced                                   : No
Color range                              : Limited
Color primaries                          : BT.2020
Transfer characteristics                 : PQ
Matrix coefficients                      : BT.2020 non-constant
Mastering display color primaries        : Display P3
Mastering display luminance              : min: 0.0000 cd/m2, max: 1000 cd/m2

Audio
ID                                       : 2
Format                                   : E-AC-3 JOC
Format/Info                              : Enhanced AC-3 with Joint Object Coding
Commercial name                          : Dolby Digital Plus with Dolby Atmos
Codec ID                                 : A_EAC3
Duration                                 : 7 min 35 s
Bit rate mode                            : Constant
Bit rate                                 : 768 kb/s
Channel(s)                               : 6 channels
Channel layout                           : L R C LFE Ls Rs
Sampling rate                            : 48.0 kHz
Frame rate                               : 31.250 FPS (1536 SPF)
Compression mode                         : Lossy
Stream size                              : 41.7 MiB (5%)
Language                                 : English
Service kind                             : Complete Main
Default                                  : Yes
Forced                                   : No
Complexity index                         : 16
Number of dynamic objects                : 15
Bed channel count                        : 1 channel
Bed channel configuration                : LFE

Text #1
ID                                       : 3
Format                                   : UTF-8
Codec ID                                 : S_TEXT/UTF8
Codec ID/Info                            : UTF-8 Plain Text
Duration                                 : 7 min 23 s
Bit rate                                 : 56 b/s
Count of elements                        : 122
Stream size                              : 3.07 KiB (0%)
Title                                    : English (SDH)
Language                                 : English
Default                                  : No
Forced                                   : No

Text #2
ID                                       : 4
Format                                   : UTF-8
Codec ID                                 : S_TEXT/UTF8
Codec ID/Info                            : UTF-8 Plain Text
Duration                                 : 7 min 24 s
Bit rate                                 : 47 b/s
Count of elements                        : 69
Stream size                              : 2.60 KiB (0%)
Title                                    : Dansk
Language                                 : Danish
Default                                  : No
Forced                                   : No

Text #3
ID                                       : 5
Format                                   : UTF-8
Codec ID                                 : S_TEXT/UTF8
Codec ID/Info                            : UTF-8 Plain Text
Duration                                 : 7 min 23 s
Bit rate                                 : 47 b/s
Count of elements                        : 96
Stream size                              : 2.58 KiB (0%)
Title                                    : Deutsch
Language                                 : German
Default                                  : No
Forced                                   : No

Text #4
ID                                       : 6
Format                                   : UTF-8
Codec ID                                 : S_TEXT/UTF8
Codec ID/Info                            : UTF-8 Plain Text
Duration                                 : 7 min 23 s
Bit rate                                 : 46 b/s
Count of elements                        : 88
Stream size                              : 2.52 KiB (0%)
Title                                    : Espa?ol
Language                                 : Spanish
Default                                  : No
Forced                                   : No

Text #5
ID                                       : 7
Format                                   : UTF-8
Codec ID                                 : S_TEXT/UTF8
Codec ID/Info                            : UTF-8 Plain Text
Duration                                 : 7 min 23 s
Bit rate                                 : 46 b/s
Count of elements                        : 88
Stream size                              : 2.53 KiB (0%)
Title                                    : Espa?ol (Latinoamericano)
Language                                 : Spanish
Default                                  : No
Forced                                   : No

Text #6
ID                                       : 8
Format                                   : UTF-8
Codec ID                                 : S_TEXT/UTF8
Codec ID/Info                            : UTF-8 Plain Text
Duration                                 : 7 min 23 s
Bit rate                                 : 45 b/s
Count of elements                        : 88
Stream size                              : 2.47 KiB (0%)
Title                                    : Suomi
Language                                 : Finnish
Default                                  : No
Forced                                   : No

Text #7
ID                                       : 9
Format                                   : UTF-8
Codec ID                                 : S_TEXT/UTF8
Codec ID/Info                            : UTF-8 Plain Text
Duration                                 : 7 min 23 s
Bit rate                                 : 48 b/s
Count of elements                        : 88
Stream size                              : 2.60 KiB (0%)
Title                                    : Fran?ais
Language                                 : French
Default                                  : No
Forced                                   : No

Text #8
ID                                       : 10
Format                                   : UTF-8
Codec ID                                 : S_TEXT/UTF8
Codec ID/Info                            : UTF-8 Plain Text
Duration                                 : 7 min 23 s
Bit rate                                 : 42 b/s
Count of elements                        : 88
Stream size                              : 2.31 KiB (0%)
Title                                    : Italiano
Language                                 : Italian
Default                                  : No
Forced                                   : No

Text #9
ID                                       : 11
Format                                   : UTF-8
Codec ID                                 : S_TEXT/UTF8
Codec ID/Info                            : UTF-8 Plain Text
Duration                                 : 7 min 23 s
Bit rate                                 : 41 b/s
Count of elements                        : 84
Stream size                              : 2.23 KiB (0%)
Title                                    : Nederlands
Language                                 : Dutch
Default                                  : No
Forced                                   : No

Text #10
ID                                       : 12
Format                                   : UTF-8
Codec ID                                 : S_TEXT/UTF8
Codec ID/Info                            : UTF-8 Plain Text
Duration                                 : 7 min 23 s
Bit rate                                 : 41 b/s
Count of elements                        : 88
Stream size                              : 2.27 KiB (0%)
Title                                    : Norsk
Language                                 : Norwegian
Default                                  : No
Forced                                   : No

Text #11
ID                                       : 13
Format                                   : UTF-8
Codec ID                                 : S_TEXT/UTF8
Codec ID/Info                            : UTF-8 Plain Text
Duration                                 : 7 min 23 s
Bit rate                                 : 44 b/s
Count of elements                        : 88
Stream size                              : 2.41 KiB (0%)
Title                                    : Polski
Language                                 : Polish
Default                                  : No
Forced                                   : No

Text #12
ID                                       : 14
Format                                   : UTF-8
Codec ID                                 : S_TEXT/UTF8
Codec ID/Info                            : UTF-8 Plain Text
Duration                                 : 7 min 23 s
Bit rate                                 : 46 b/s
Count of elements                        : 88
Stream size                              : 2.50 KiB (0%)
Title                                    : Português (Brasil)
Language                                 : Portuguese
Default                                  : No
Forced                                   : No

Text #13
ID                                       : 15
Format                                   : UTF-8
Codec ID                                 : S_TEXT/UTF8
Codec ID/Info                            : UTF-8 Plain Text
Duration                                 : 7 min 23 s
Bit rate                                 : 45 b/s
Count of elements                        : 88
Stream size                              : 2.45 KiB (0%)
Title                                    : Português
Language                                 : Portuguese
Default                                  : No
Forced                                   : No

Text #14
ID                                       : 16
Format                                   : UTF-8
Codec ID                                 : S_TEXT/UTF8
Codec ID/Info                            : UTF-8 Plain Text
Duration                                 : 7 min 23 s
Bit rate                                 : 43 b/s
Count of elements                        : 83
Stream size                              : 2.34 KiB (0%)
Title                                    : Svenska
Language                                 : Swedish
Default                                  : No
Forced                                   : No




本帖子中包含更多资源

您需要 登录 才可以下载或查看,没有帐号?立即注册

x
回复

使用道具 举报

0

主题

1485

帖子

526

积分

中级会员

Rank: 3Rank: 3

积分
526
发表于 2021-1-18 22:15:09 | 显示全部楼层
感谢分享 辛苦上传
回复

使用道具 举报

0

主题

220

帖子

198

积分

初级会员

Rank: 2

积分
198
发表于 2021-1-18 22:40:47 | 显示全部楼层
谢谢楼主分享
回复

使用道具 举报

0

主题

88

帖子

162

积分

初级会员

Rank: 2

积分
162
发表于 2021-1-19 00:55:02 | 显示全部楼层
thanks for sharing
回复

使用道具 举报

0

主题

490

帖子

109

积分

初级会员

Rank: 2

积分
109
发表于 2021-1-19 01:30:21 | 显示全部楼层
谢谢分享!!
回复

使用道具 举报

0

主题

1

帖子

2

积分

新手上路

Rank: 1

积分
2
发表于 2021-1-19 02:09:11 | 显示全部楼层
谢谢楼主的分享!!
回复

使用道具 举报

0

主题

407

帖子

238

积分

初级会员

Rank: 2

积分
238
发表于 2021-1-19 03:59:23 | 显示全部楼层
谢谢分享,楼主辛苦了
回复

使用道具 举报

0

主题

28

帖子

7

积分

新手上路

Rank: 1

积分
7
发表于 2021-1-19 08:09:29 | 显示全部楼层
谢谢楼主分享
回复

使用道具 举报

0

主题

75

帖子

13

积分

新手上路

Rank: 1

积分
13
发表于 2021-1-19 08:34:22 | 显示全部楼层
好东西,下一个。
回复

使用道具 举报

0

主题

34

帖子

8

积分

新手上路

Rank: 1

积分
8
发表于 2021-1-19 10:58:33 | 显示全部楼层
感谢楼主的分享!
回复

使用道具 举报

您需要登录后才可以回帖 登录 | 立即注册

本版积分规则

为防丢失网站网址,敬请关注官方微信公众号,再也不会迷路!
4K天堂会一路坚持,共建高清电影爱好者的精神家园。

QQ|Archiver|手机版|小黑屋|4K电影下载

GMT+8, 2021-3-1 02:28 , Processed in 0.109375 second(s), 20 queries , Gzip On.

Powered by Discuz! X3.4

Copyright © 2001-2020, Tencent Cloud.

快速回复 返回顶部 返回列表