4K天堂

 找回密码
 立即注册
查看: 1677|回复: 78

[中国] [背靠背,脸对脸]1994.CHINESE.1080p.BluRay.x264.FLAC.2.0-HANDJOB 国语中字/12.3GB

  [复制链接]

1592

主题

1620

帖子

3万

积分

管理员

Rank: 9Rank: 9Rank: 9

积分
31189
发表于 2021-1-18 22:54:08 | 显示全部楼层 |阅读模式

◎译  名 Back to Back, Face to Face / 秋风醉了 / 背对背,脸对脸
◎片  名 背靠背,脸对脸
◎年  代 1994
◎产  地 中国大陆 / 中国香港
◎类  别 剧情
◎语  言 汉语普通话
◎上映日期 1994-09-10(多伦多电影节)
◎IMDb评分  8.0/10 from 304 users
◎蓝光高清   http://www.4ktt.com
◎豆瓣评分 9.4/10 from 60665 users
◎豆瓣链接 https://movie.douban.com/subject/1307856/
◎片  长 141分钟
◎导  演 黄建新 Jianxin Huang / 杨亚洲 Yazhou Yang
◎编  剧 黄建新 Jianxin Huang / 孙毅安 Yi-an Sun / 刘醒龙 Xinglong Liu
◎主  演 牛振华 Zhenhua Niu
       雷恪生 Kesheng Lei
       李强 Qiang Li
       句号 Hao Ju
       王劲松 Jinsong Wang
       戈治均 Zhijun Ge
       佘南南 Nannan She
       张嘉益 Jiayi Zhang
       刘国祥 Guoxiang Liu
       徐学政 Xuezheng Xu
       林海海 Haihai Lin
       温谦 Qian Wen
       马载军 Zaijun Ma
       吴玮玲 Weiling Wu
       韩炳杰 Bingjie Han
       杨亚洲 Yazhou Yang
       王馥荔 Fuli Wang
       张艺 Yi Zhang
       王洪光 Hongguang Wang


◎标  签 政治 | 经典 | 人性 | 中国电影 | 大陆 | 中国 | 剧情 | 1994

◎简  介  
  王双立(牛振华 饰)是某地文化馆的代馆长,这个馆长一代就是好几年,想升也升不上去,却也没有其他变动。不料一天,来了新的文化馆长老马(雷恪生 饰),这让王双立离正馆长的距离更远了。新馆长老马原是个副乡长,王双立认为他是个土包子,心里很是不以为然,利用自己对文化馆人际关系熟 悉的优势,想方设法给老马出难题。经过几轮较量,老马终于被挤走,王双立又成了代馆长,再次受领导重用,岂料,螳螂捕蝉黄雀在后,秘书小阎(李强 饰)成了新一任馆长。王双立不甘心,再次和小阎斗法,想将对方挤走,这次王双立还能如愿与偿吗?电影《背靠背,脸对脸》获得第二届大学生电影节最佳故事片和最佳男主角奖、东京国际电影节最佳男主角奖、第15届金鸡奖最佳导演和最佳合作片奖、第14届香港电影金像奖十大华语片。


◎获奖情况  
  第7届东京国际电影节(1994)
  主竞赛单元 最佳影片(提名) 黄建新
  主竞赛单元 最佳男演员 牛振华

  第15届中国电影金鸡奖(1995)
  最佳导演 黄建新 / 杨亚洲
  最佳编剧(提名) 黄建新 / 孙毅安
  最佳男主角(提名) 牛振华
  最佳男配角(提名) 句号
  最佳合拍片
  最佳录音(提名)

  第2届北京大学生电影节(1995)
  最佳影片奖
  最佳男演员奖 牛振华

Video
ID : 1
Format : AVC
Format/Info : Advanced Video Codec
Format profile : High@L4.1
Format settings : CABAC / 4 Ref Frames
Format settings, CABAC : Yes
Format settings, Reference frames : 4 frames
Codec ID : V_MPEG4/ISO/AVC
Duration : 2 h 27 min
Bit rate : 11.5 Mb/s
Width : 1 920 pixels
Height : 1 036 pixels
Display aspect ratio : 1.85:1
Frame rate mode : Constant
Frame rate : 24.000 FPS
Color space : YUV
Chroma subsampling : 4:2:0
Bit depth : 8 bits
Scan type : Progressive
Bits/(Pixel*Frame) : 0.241
Stream size : 11.9 GiB (97%)
Writing library : x264 core 157 r2935 545de2f
Encoding settings : cabac=1 / ref=4 / deblock=1:-3:-3 / analyse=0x3:0x133 / me=umh / subme=10 / psy=1 / psy_rd=1.00:0.00 / mixed_ref=1 / me_range=32 / chroma_me=1 / trellis=2 / 8x8dct=1 / cqm=0 / deadzone=21,11 / fast_pskip=0 / chroma_qp_offset=-2 / threads=32 / lookahead_threads=8 / sliced_threads=0 / nr=0 / decimate=0 / interlaced=0 / bluray_compat=0 / constrained_intra=0 / bframes=16 / b_pyramid=2 / b_adapt=2 / b_bias=0 / direct=3 / weightb=1 / open_gop=0 / weightp=2 / keyint=240 / keyint_min=24 / scenecut=40 / intra_refresh=0 / rc_lookahead=60 / rc=crf / mbtree=0 / crf=17.2 / qcomp=0.60 / qpmin=0 / qpmax=69 / qpstep=4 / vbv_maxrate=62500 / vbv_bufsize=78125 / crf_max=0.0 / nal_hrd=none / filler=0 / ip_ratio=1.40 / pb_ratio=1.30 / aq=2:1.00
Default : Yes
Forced : No
Color range : Limited
Color primaries : BT.709
Transfer characteristics : BT.709
Matrix coefficients : BT.709

Audio
ID : 2
Format : FLAC
Format/Info : Free Lossless Audio Codec
Codec ID : A_FLAC
Duration : 2 h 27 min
Bit rate mode : Variable
Bit rate : 364 kb/s
Channel(s) : 1 channel
Channel layout : C
Sampling rate : 48.0 kHz
Frame rate : 11.719 FPS (4096 SPF)
Bit depth : 16 bits
Compression mode : Lossless
Stream size : 385 MiB (3%)
Writing library : libFLAC 1.2.1 (UTC 2007-09-17)
Language : Chinese
Default : Yes
Forced : No

Text #1
ID : 3
Format : UTF-8
Codec ID : S_TEXT/UTF8
Codec ID/Info : UTF-8 Plain Text
Duration : 2 h 24 min
Bit rate : 63 b/s
Count of elements : 2034
Stream size : 66.6 KiB (0%)
Language : English
Default : Yes
Forced : No

Text #2
ID : 4
Format : PGS
Muxing mode : zlib
Codec ID : S_HDMV/PGS
Codec ID/Info : Picture based subtitle format used on BDs/HD-DVDs
Duration : 2 h 24 min
Bit rate : 27.5 kb/s
Count of elements : 3459
Stream size : 28.4 MiB (0%)
Language : Chinese
Default : No
Forced : No

Menu
00:00:00.000 : :Chapter 1
00:17:40.125 : :Chapter 2
00:27:34.667 : :Chapter 3
00:37:11.292 : :Chapter 4
00:49:32.792 : :Chapter 5
01:00:34.917 : :Chapter 6
01:10:13.042 : :Chapter 7
01:22:47.667 : :Chapter 8
01:35:05.667 : :Chapter 9
01:44:12.167 : :Chapter 10
01:58:43.833 : :Chapter 11
02:17:44.250 : :Chapter 12






本帖子中包含更多资源

您需要 登录 才可以下载或查看,没有帐号?立即注册

x
回复

使用道具 举报

0

主题

1603

帖子

198

积分

初级会员

Rank: 2

积分
198
发表于 2021-1-18 23:29:23 | 显示全部楼层
感谢分享经典影片
回复

使用道具 举报

0

主题

125

帖子

21

积分

新手上路

Rank: 1

积分
21
发表于 2021-1-18 23:35:34 | 显示全部楼层
太好了,非常喜欢
回复

使用道具 举报

0

主题

883

帖子

204

积分

初级会员

Rank: 2

积分
204
发表于 2021-1-18 23:55:11 | 显示全部楼层
Thanks for sharing
回复

使用道具 举报

0

主题

468

帖子

107

积分

初级会员

Rank: 2

积分
107
发表于 2021-1-19 01:32:19 | 显示全部楼层
谢谢分享!!
回复

使用道具 举报

0

主题

831

帖子

315

积分

初级会员

Rank: 2

积分
315
发表于 2021-1-19 01:53:10 | 显示全部楼层
Thanks a lot.
回复

使用道具 举报

0

主题

290

帖子

37

积分

新手上路

Rank: 1

积分
37
发表于 2021-1-19 07:14:10 | 显示全部楼层
谢谢楼主的分享!!!!!
回复

使用道具 举报

0

主题

133

帖子

160

积分

初级会员

Rank: 2

积分
160
发表于 2021-1-19 07:58:17 | 显示全部楼层
终于等到,希望出电视剧版
回复

使用道具 举报

0

主题

82

帖子

88

积分

初级会员

Rank: 2

积分
88
发表于 2021-1-19 07:59:03 | 显示全部楼层
好资源,感谢分享了
回复

使用道具 举报

0

主题

89

帖子

30

积分

新手上路

Rank: 1

积分
30
发表于 2021-1-19 08:01:46 | 显示全部楼层
谢谢楼主分享
回复

使用道具 举报

您需要登录后才可以回帖 登录 | 立即注册

本版积分规则

为防丢失网站网址,敬请关注官方微信公众号,再也不会迷路!
4K天堂会一路坚持,共建高清电影爱好者的精神家园。

QQ|Archiver|手机版|小黑屋|4K电影下载

GMT+8, 2021-2-25 04:11 , Processed in 0.125000 second(s), 20 queries , Gzip On.

Powered by Discuz! X3.4

Copyright © 2001-2020, Tencent Cloud.

快速回复 返回顶部 返回列表