4K天堂

 找回密码
 立即注册

QQ登录

只需一步,快速开始

查看: 17149|回复: 871

[X战警:死侍(4K版)][2160P(3840X1608)][英语HEVC.x265.DTS/24G][2016年高分动作电影]

  [复制链接]

签到天数: 9 天

[LV.3]偶尔看看II

管理员

5896

主题

5947

帖子

3553

积分

Rank: 9Rank: 9Rank: 9

积分
3553

灌水达人优秀版主超级版主荣誉管理

发表于 2016-6-4 00:50:29 | 显示全部楼层 |阅读模式

死侍/死侍:不死现身(港)/恶棍英雄:死侍(台)(4K版) Deadpool.2016.2160p.UltraHD.BluRay.HEVC.x265.DTS-HD.7.1 [Zeus-n-Duke]


◎译  名 死侍/X战警:死侍/死侍:不死现身(港)/恶棍英雄:死侍(台)
◎片  名 Deadpool
◎年  代 2016
◎国  家 美国
◎类  别 动作/冒险/科幻
◎语  言 英语...
◎字  幕 N/A
◎IMDb评分  8.3/10 from 332,494 users (Top Rated Movies #128)
◎4K电影下载  http://www.4ktt.com
◎文件格式 x265 + DTS
◎视频尺寸 3840x1608
◎文件大小 23.99  GiB
◎片  长 1h 47mn
◎导  演 提姆·米勒 Tim Miller
◎主  演 瑞安·雷诺兹 Ryan Reynolds ... Wade / Deadpool
      Karan Soni ... Dopinder
      Ed Skrein ... Ajax
      Michael Benyaer ... Warlord
      斯特凡·卡皮西奇 Stefan Kapicic ... Colossus (voice)
      布里安娜·希尔德布兰 Brianna Hildebrand ... Negasonic Teenage Warhead
      Style Dayne ... Jeremy (Pizza Guy)
      Kyle Cassie ... Gavin Merchant
      Taylor Hickson ... Meghan Orlovsky
      Ayzee ... Teen Girl #1
      Naika Toussaint ... Teen Girl #2
      Randal Reeder ... Buck
      T.J. Miller ... Weasel
      Isaac C. Singleton Jr. ... Boothe
      莫瑞娜·巴卡琳 Morena Baccarin ... Vanessa

◎简  介
  该片是《X战警》系列电影的外传。讲述了前任特种兵韦德·威尔逊得了不治之症,而自愿加入“X武器计划”获得了快速自愈能力。在饱受虐待折磨后他成功逃脱并对Ajax进行追杀的故事。


花      絮
.2015年4月1日,瑞恩·雷诺兹在推特上透露《死侍》电影将被定为“PG13”级,遭到了原着漫迷们的一致吐槽。不过最终这被证实只是一个愚人节笑话。电影最终被定为R级。

.2012年为了让制片公司的老板开绿灯,《死侍》拍摄了3分钟的试片片段。2014年片段公之于众,广受好评,最终这个3分钟的片段被包含在了正片里。

.影片2016年2月上映,距离死侍这个角色在《New Mutants #98》中首次亮相整整过去了25年。

.片中,韦德·威尔逊提出邀请:“不要把制服搞成绿色的——也不要动画的!”这里讽刺了雷诺兹本人主演的着名烂片《绿灯侠》。绿灯侠的“绿色”并非是穿上了绿色的制服,而是CG后期加上去的颜色。

. Negasonic Teenage Warhead的名字来自于美国摇滚乐队Monster Magnet的同名歌曲。编辑Rhett Reese透露,这个角色之所以被选中出现在本片当中就是由于名字够拉风。

.在漫画原着中,Negasonic Teenage Warhead拥有的超能力是心灵感应和预知未来,但在本片中,编剧根据剧情需要修改了她的超能力。

.《死侍》(2016)是继续《惩罚者2:战争特区》(2008)之后第一部被评为R级别的漫威改编电影。

.艾德·斯克林(饰演阿贾克斯)将本片形容为一部“双方都是复仇者的复仇游戏”。

.雷诺兹表明自己在死侍之后不会再接演其他任何超级英雄角色。当然,他会考虑《死侍》系列的续集。

.电影拍摄周期只有短短48天。

.本片是提姆·米勒的导演处女作。

.Michael Jackson的经典歌曲《Beat it》在片中多次出现。

.影片中出现的脱衣舞俱乐部是真实存在的,名字和电影里一样,就叫作No.5 Orange(五号橙),位于温哥华。

.布里安娜·希尔德布兰为了扮演Negasonic Teenage Warhead而进行了数月的泰拳训练。

. Colossus这个角色是由多名演员共同完成的。Andre Tricoteux负责动作捕捉,Greg LaSalle负责面部表演捕捉,Stefan Kapicic、Yevgeniy Kartashov负责配音。

.迄今上映为止,《死侍》是《X战警》角色之单独外传电影中唯一被烂番茄(Rotten Tomatoes)判定为“新鲜”的一部。

.雷诺兹一直是死侍这个漫画角色的忠实粉丝,2005年他就开始游说别人拍摄这部电影,曾希望由大卫·S·高耶执导(两人合作了影片《刀锋战士3》)。为了出演本片,雷诺兹还主动削减了薪水。

.这是瑞恩·雷诺茨出演的第五部漫画改编影片。前四部分别是《刀锋战士3》2004,《金刚狼》2009(同样扮演死侍),《绿灯侠》2011以及《冥界警局》2013。

.片中,打破“第四堵墙”的死侍多次讽刺本片经费不足,事实上福斯公司在开拍前临时消减了700万美元的预算,造成剧本有些地方需要被改写,反派的人数,追逐戏的次数以及战斗的规模都被减少。

Video
ID : 1
Format : HEVC
Format/Info : High Efficiency Video Coding
Format profile : [email protected]@Main
Codec ID : V_MPEGH/ISO/HEVC
Duration : 1h 47mn
Bit rate : 24.8 Mbps
Width : 3 840 pixels
Height : 1 608 pixels
Display aspect ratio : 2.40:1
Frame rate mode : Constant
Frame rate : 23.976 (23976/1000) fps
Original frame rate : 23.976 (24000/1001) fps
Color space : YUV
Chroma subsampling : 4:2:0
Bit depth : 8 bits
Bits/(Pixel*Frame) : 0.168
Stream size : 18.6 GiB (78%)
Writing library : x265 1.9:[Windows][GCC 4.9.0][64 bit] 8bit
Encoding settings : wpp / ctu=64 / min-cu-size=8 / max-tu-size=32 / tu-intra-depth=1 / tu-inter-depth=1 / me=1 / subme=2 / merange=57 / no-rect / no-amp / max-merge=2 / temporal-mvp / no-early-skip / rdpenalty=0 / no-tskip / no-tskip-fast / strong-intra-smoothing / no-lossless / no-cu-lossless / no-constrained-intra / no-fast-intra / open-gop / no-temporal-layers / interlace=0 / keyint=240 / min-keyint=24 / scenecut=40 / rc-lookahead=20 / lookahead-slices=8 / bframes=4 / bframe-bias=0 / b-adapt=2 / ref=3 / limit-refs=3 / no-limit-modes / weightp / no-weightb / aq-mode=1 / qg-size=32 / aq-strength=1.00 / cbqpoffs=0 / crqpoffs=0 / rd=3 / psy-rd=2.00 / rdoq-level=0 / psy-rdoq=0.00 / signhide / deblock / sao / no-sao-non-deblock / b-pyramid / cutree / no-intra-refresh / rc=abr / bitrate=25000 / qcomp=0.60 / qpmin=0 / qpmax=51 / qpstep=4 / ipratio=1.40 / pbratio=1.30
Default : No
Forced : No
Color range : Limited
Color primaries : BT.709
Transfer characteristics : BT.709
Matrix coefficients : BT.709

Audio #1
ID : 2
Format : AAC
Format/Info : Advanced Audio Codec
Format profile : LC
Codec ID : A_AAC
Duration : 1h 47mn
Bit rate : 160 Kbps
Channel(s) : 2 channels
Channel positions : Front: L R
Sampling rate : 48.0 KHz
Frame rate : 46.875 fps (1024 spf)
Compression mode : Lossy
Delay relative to video : -21ms
Stream size : 123 MiB (1%)
Title : Stereo
Default : No
Forced : No

Audio #2
ID : 3
Format : AC-3
Format/Info : Audio Coding 3
Mode extension : CM (complete main)
Format settings, Endianness : Big
Codec ID : A_AC3
Duration : 1h 47mn
Bit rate mode : Constant
Bit rate : 224 Kbps
Channel(s) : 2 channels
Channel positions : Front: L R
Sampling rate : 48.0 KHz
Frame rate : 31.250 fps (1536 spf)
Compression mode : Lossy
Delay relative to video : -5ms
Stream size : 172 MiB (1%)
Title : Stereo
Default : No
Forced : No

Audio #3
ID : 4
Format : DTS
Format/Info : Digital Theater Systems
Format profile : MA / ES Matrix / Core
Mode : 16
Format settings, Endianness : Big
Codec ID : A_DTS
Duration : 1h 48mn
Bit rate mode : Variable / Constant / Constant
Bit rate : 4 893 Kbps / 1 509 Kbps / 1 509 Kbps
Channel(s) : 8 channels / 7 channels / 6 channels
Channel positions : Front: L C R, Side: L R, Back: L R, LFE / Front: L C R, Side: L R, Back: C, LFE / Front: L C R, Side: L R, LFE
Sampling rate : 48.0 KHz
Frame rate : 93.750 fps (512 spf)
Bit depth : 24 bits
Compression mode : Lossless / Lossy / Lossy
Delay relative to video : -78ms
Stream size : 3.69 GiB (15%)
Language : English
Default : No
Forced : No

Audio #4
ID : 5
Format : AC-3
Format/Info : Audio Coding 3
Mode extension : CM (complete main)
Format settings, Endianness : Big
Codec ID : A_AC3
Duration : 1h 48mn
Bit rate mode : Constant
Bit rate : 448 Kbps
Channel(s) : 6 channels
Channel positions : Front: L C R, Side: L R, LFE
Sampling rate : 48.0 KHz
Frame rate : 31.250 fps (1536 spf)
Compression mode : Lossy
Delay relative to video : -67ms
Stream size : 346 MiB (1%)
Language : English
Default : No
Forced : No

Audio #5
ID : 6
Format : AC-3
Format/Info : Audio Coding 3
Mode extension : CM (complete main)
Format settings, Endianness : Big
Codec ID : A_AC3
Duration : 1h 48mn
Bit rate mode : Constant
Bit rate : 448 Kbps
Channel(s) : 6 channels
Channel positions : Front: L C R, Side: L R, LFE
Sampling rate : 48.0 KHz
Frame rate : 31.250 fps (1536 spf)
Compression mode : Lossy
Delay relative to video : -67ms
Stream size : 346 MiB (1%)
Language : Spanish
Default : No
Forced : No

Audio #6
ID : 7
Format : AC-3
Format/Info : Audio Coding 3
Mode extension : CM (complete main)
Format settings, Endianness : Big
Codec ID : A_AC3
Duration : 1h 48mn
Bit rate mode : Constant
Bit rate : 448 Kbps
Channel(s) : 6 channels
Channel positions : Front: L C R, Side: L R, LFE
Sampling rate : 48.0 KHz
Frame rate : 31.250 fps (1536 spf)
Compression mode : Lossy
Delay relative to video : -67ms
Stream size : 346 MiB (1%)
Language : French
Default : No
Forced : No

Audio #7
ID : 8
Format : AC-3
Format/Info : Audio Coding 3
Mode extension : CM (complete main)
Format settings, Endianness : Big
Codec ID : A_AC3
Duration : 1h 48mn
Bit rate mode : Constant
Bit rate : 224 Kbps
Channel(s) : 2 channels
Channel positions : Front: L R
Sampling rate : 48.0 KHz
Frame rate : 31.250 fps (1536 spf)
Compression mode : Lossy
Delay relative to video : -67ms
Stream size : 173 MiB (1%)
Language : English
Default : No
Forced : No

Audio #8
ID : 9
Format : AC-3
Format/Info : Audio Coding 3
Mode extension : CM (complete main)
Format settings, Endianness : Big
Codec ID : A_AC3
Duration : 1h 48mn
Bit rate mode : Constant
Bit rate : 224 Kbps
Channel(s) : 2 channels
Channel positions : Front: L R
Sampling rate : 48.0 KHz
Frame rate : 31.250 fps (1536 spf)
Compression mode : Lossy
Delay relative to video : -67ms
Stream size : 173 MiB (1%)
Language : English
Default : No
Forced : No









游客,如果您要查看本帖隐藏内容请回复,如果您想无广告、免回复、下载附件免4K币请开通VIP会员:VIP传送门


回复

使用道具 举报

该用户从未签到

新手上路

0

主题

1

帖子

5

积分

Rank: 1

积分
5
发表于 2016-6-4 07:50:37 | 显示全部楼层
下载来看一下

点评

补档。  发表于 2017-3-30 10:36
值得一看!!! m.346xs.com 荷包网  发表于 2017-3-16 23:38
回复 支持 反对

使用道具 举报

签到天数: 264 天

[LV.8]以坛为家I

新手上路

0

主题

307

帖子

32

积分

Rank: 1

积分
32
发表于 2016-6-4 14:10:04 | 显示全部楼层
谢谢分享!
回复

使用道具 举报

签到天数: 3 天

[LV.2]偶尔看看I

新手上路

0

主题

7

帖子

19

积分

Rank: 1

积分
19
发表于 2016-6-5 12:02:38 | 显示全部楼层
支持4K天堂,高清看着才爽。
回复 支持 反对

使用道具 举报

签到天数: 390 天

[LV.9]以坛为家II

初级会员

12

主题

448

帖子

52

积分

Rank: 2

积分
52
发表于 2016-6-5 20:53:00 | 显示全部楼层
[X战警:死侍(4K版)][2160P(3840X1608)][英语HEVC.x265.DTS/24G][2016年
回复 支持 反对

使用道具 举报

签到天数: 7 天

[LV.3]偶尔看看II

初级会员

0

主题

26

帖子

67

积分

Rank: 2

积分
67
发表于 2016-6-6 01:04:49 | 显示全部楼层
谢谢分享!
回复

使用道具 举报

签到天数: 3 天

[LV.2]偶尔看看I

新手上路

0

主题

12

帖子

2

积分

Rank: 1

积分
2
发表于 2016-6-7 13:46:03 | 显示全部楼层
这个资源非常是好我特别想看看怎么样
回复 支持 反对

使用道具 举报

该用户从未签到

新手上路

0

主题

1

帖子

5

积分

Rank: 1

积分
5
发表于 2016-6-7 15:27:34 | 显示全部楼层
谢谢楼主分享,下载下来看看。
回复 支持 反对

使用道具 举报

签到天数: 33 天

[LV.5]常住居民I

新手上路

0

主题

97

帖子

11

积分

Rank: 1

积分
11
发表于 2016-6-7 15:32:24 | 显示全部楼层
下了几个版本都不怎么样,看这个怎么样
回复 支持 反对

使用道具 举报

签到天数: 9 天

[LV.3]偶尔看看II

新手上路

0

主题

11

帖子

2

积分

Rank: 1

积分
2
发表于 2016-6-7 22:41:13 | 显示全部楼层
多谢分享
回复

使用道具 举报

4K天堂官方交流QQ群:514024212
您需要登录后才可以回帖 登录 | 立即注册

本版积分规则

QQ|Archiver|手机版|小黑屋|4K电影下载  

GMT+8, 2017-5-26 00:11 , Processed in 0.409952 second(s), 42 queries , Gzip On.

Powered by Discuz! X3.2

© 2001-2013 Comsenz Inc.

快速回复 返回顶部 返回列表