4K天堂

 找回密码
 立即注册
查看: 11387|回复: 550

[唐人街探案2]2018.2160p.4K.WEB-DL.x264 AAC-SmY 国语中字/5.49G

  [复制链接]

签到天数: 9 天

[LV.3]偶尔看看II

管理员

9362

主题

9497

帖子

5641

积分

Rank: 9Rank: 9Rank: 9

积分
5641

优秀版主荣誉管理

发表于 2018-4-20 23:16:15 | 显示全部楼层 |阅读模式

◎译  名    唐探2 / 唐人街探案2
◎片  名 Detective Chinatown Vol 2
◎年  代 2018
◎产  地 中国大陆
◎类  别 喜剧/动作/犯罪/悬疑
◎语  言 汉语普通话
◎上映日期 2018-02-16(中国大陆)
◎IMDb评分  6.2/10 from 556 users
◎IMDb链接  http://www.imdb.com/title/tt7752454/
◎豆瓣评分 7.0/10 from 302,409 users
◎古哥论坛   http://www.gugeys.com
◎片  长 120分钟
◎导  演 陈思诚 Sicheng Chen
◎主  演 王宝强 Baoqiang Wang
                    刘昊然 Haoran Liu
                    肖央 Yang Xiao
                    刘承羽 Natasha Liu Bordizzo
                    尚语贤 Yuxian Shang
                    王迅 Xun Wang
                    妻夫木聪 Satoshi Tsumabuki
                    迈克尔·皮特 Michael Pitt
                    白灵 Ling Bai
                    元华 Wah Yuen
                    曾江 Kenneth Tsang
                    王成思 Chengsi Wang
                    杨金赐 Jinci Yang
                    范湉湉 Tiantian Fan
                    佟丽娅 Liya Tong
                    陈思诚 Sicheng Chen


◎简  介
       唐仁(王宝强 饰)为巨额奖金欺骗秦风(刘昊然 饰)到纽约参加世界名侦探大赛,然而随着和世界各国侦探们啼笑皆非的较量,两人却发现了隐藏在这次挑战背后的更大秘密...


◎获奖情况
第4届豆瓣电影年度榜单  (2017)
最值得期待的华语电影(提名)

General
Format                         : Matroska
Format version                 : Version 4 / Version 2
File size                      : 5.49 GiB
Duration                       : 2h 0mn
Overall bit rate               : 6 508 Kbps
Encoded date                   : UTC 2018-04-20 09:30:03
Writing application            : mkvmerge v7.1.0 ('Good Love') 32bit built on Jul 27 2014 12:59:18
Writing library                : libebml v1.3.0 + libmatroska v1.4.1

Video
ID                             : 1
Format                         : AVC
Format/Info                    : Advanced Video Codec
Format profile                 : High@L5.1
Format settings, CABAC         : Yes
Format settings, ReFrames      : 3 frames
Codec ID                       : V_MPEG4/ISO/AVC
Duration                       : 2h 0mn
Bit rate                       : 6 316 Kbps
Width                          : 3 840 pixels
Height                         : 1 600 pixels
Display aspect ratio           : 2.40:1
Frame rate mode                : Constant
Frame rate                     : 24.000 fps
Color space                    : YUV
Chroma subsampling             : 4:2:0
Bit depth                      : 8 bits
Scan type                      : Progressive
Bits/(Pixel*Frame)             : 0.043
Stream size                    : 5.33 GiB (97%)
Default                        : Yes
Forced                         : No
Color range                    : Limited
Color primaries                : BT.709
Transfer characteristics       : BT.709
Matrix coefficients            : BT.709

Audio
ID                             : 2
Format                         : AAC
Format/Info                    : Advanced Audio Codec
Format profile                 : LC
Codec ID                       : A_AAC
Duration                       : 2h 0mn
Bit rate                       : 192 Kbps
Channel(s)                     : 2 channels
Channel positions              : Front: L R
Sampling rate                  : 44.1 KHz
Frame rate                     : 43.066 fps (1024 spf)
Compression mode               : Lossy
Delay relative to video        : -83ms
Stream size                    : 164 MiB (3%)
Default                        : Yes
Forced                         : No



游客,如果您要查看本帖隐藏内容请回复,如果您想无广告、免回复、下载附件免4K币请开通VIP会员:VIP传送门


4K电影天堂www.4ktt.com
4K电影,蓝光电影,高清电影下载,4K电视,4K视频,4K电影下载
提示:如迅雷下载提示"任务出错"、"因版权无法下载",请更换【迅雷5】
回复

使用道具 举报

签到天数: 24 天

[LV.4]偶尔看看III

新手上路

0

主题

296

帖子

31

积分

Rank: 1

积分
31
发表于 2018-4-20 23:29:14 | 显示全部楼层
感谢楼主分享
4K电影天堂www.4ktt.com
4K电影,蓝光电影,高清电影下载,4K电视,4K视频,4K电影下载
回复 支持 反对

使用道具 举报

签到天数: 103 天

[LV.6]常住居民II

新手上路

0

主题

211

帖子

22

积分

Rank: 1

积分
22
发表于 2018-4-20 23:50:02 | 显示全部楼层
找了好久终于找到了
4K电影天堂www.4ktt.com
4K电影,蓝光电影,高清电影下载,4K电视,4K视频,4K电影下载
回复 支持 反对

使用道具 举报

签到天数: 3 天

[LV.2]偶尔看看I

新手上路

0

主题

16

帖子

3

积分

Rank: 1

积分
3
发表于 2018-4-20 23:51:35 | 显示全部楼层
:):):)
4K电影天堂www.4ktt.com
4K电影,蓝光电影,高清电影下载,4K电视,4K视频,4K电影下载
回复

使用道具 举报

签到天数: 511 天

[LV.9]以坛为家II

初级会员

5

主题

845

帖子

88

积分

Rank: 2

积分
88
发表于 2018-4-21 00:10:02 | 显示全部楼层
4K天堂官方交流QQ群:514024212
4K电影天堂www.4ktt.com
4K电影,蓝光电影,高清电影下载,4K电视,4K视频,4K电影下载
回复 支持 反对

使用道具 举报

签到天数: 252 天

[LV.8]以坛为家I

新手上路

0

主题

402

帖子

41

积分

Rank: 1

积分
41
发表于 2018-4-21 00:15:15 | 显示全部楼层
。。。。。。。。。。。。。。
4K电影天堂www.4ktt.com
4K电影,蓝光电影,高清电影下载,4K电视,4K视频,4K电影下载
回复

使用道具 举报

签到天数: 18 天

[LV.4]偶尔看看III

新手上路

1

主题

55

帖子

7

积分

Rank: 1

积分
7
发表于 2018-4-21 00:32:15 | 显示全部楼层
感谢分享!谢谢质支持论坛
4K电影天堂www.4ktt.com
4K电影,蓝光电影,高清电影下载,4K电视,4K视频,4K电影下载
回复 支持 反对

使用道具 举报

签到天数: 1 天

[LV.1]初来乍到

新手上路

0

主题

67

帖子

8

积分

Rank: 1

积分
8
发表于 2018-4-21 00:35:55 | 显示全部楼层
感谢楼主分享
4K电影天堂www.4ktt.com
4K电影,蓝光电影,高清电影下载,4K电视,4K视频,4K电影下载
回复 支持 反对

使用道具 举报

该用户从未签到

新手上路

0

主题

103

帖子

11

积分

Rank: 1

积分
11
发表于 2018-4-21 00:41:35 | 显示全部楼层
感谢楼主分享!!!!
4K电影天堂www.4ktt.com
4K电影,蓝光电影,高清电影下载,4K电视,4K视频,4K电影下载
回复 支持 反对

使用道具 举报

签到天数: 128 天

[LV.7]常住居民III

新手上路

0

主题

223

帖子

23

积分

Rank: 1

积分
23
发表于 2018-4-21 00:43:46 | 显示全部楼层
                  
4K电影天堂www.4ktt.com
4K电影,蓝光电影,高清电影下载,4K电视,4K视频,4K电影下载
回复 支持 反对

使用道具 举报

4K天堂官方交流QQ群:514024212
您需要登录后才可以回帖 登录 | 立即注册

本版积分规则

关注官方微信公众号,防止与网站失去联系
最近又在进行影视类网站严管,以防大家与网站失去联系,请扫描左边二维码,关注微信公众号,最新公告将会通过微信告知。微信公众号:sktt2020

QQ|Archiver|手机版|小黑屋|4K电影下载  

GMT+8, 2019-6-25 03:17 , Processed in 0.334602 second(s), 37 queries , Gzip On.

Powered by Discuz! X3.2

© 2001-2013 Comsenz Inc.

快速回复 返回顶部 返回列表