4K天堂

 找回密码
 立即注册

QQ登录

只需一步,快速开始

查看: 193|回复: 2

[Remux] [犯罪大师]Masterminds.2016.1080p.BluRay.REMUX.AVC.DTS-HD.MA.5.1-FGT 18GB

[复制链接]

该用户从未签到

版主

851

主题

851

帖子

511

积分

Rank: 7Rank: 7Rank: 7

积分
511

灌水达人忠实会员论坛版主

发表于 2017-1-12 16:07:08 | 显示全部楼层 |阅读模式

◎译  名 犯罪大师/笨贼乐盗家(台)/最爆盗贼团(港)
◎片  名 Masterminds
◎年  代 2016
◎国  家 美国
◎类  别 喜剧/动作/犯罪
◎语  言 西班牙语/英语
◎上映日期 2016-09-30(美国)
◎IMDb评分 5.7/10 from 11,233 users
◎豆瓣评分 6.2/10 from 81 users
◎蓝光高清    http://www.4ktt.com
◎片  长 94分钟
◎导  演 杰瑞德·赫斯 Jared Hess
◎主  演 克里斯汀·韦格 Kristen Wiig
      欧文·威尔逊 Owen Wilson
      杰森·苏戴奇斯 Jason Sudeikis
      凯特·麦克金农 Kate McKinnon
      扎克·加利凡纳基斯 Zach Galifianakis
      肯·马里诺 Ken Marino
      乔恩·戴利 Jon Daly
      Devin Ratray
      罗达·格里菲丝 Rhoda Griffis
      Danny Comden
      马特·科博伊 Matt Corboy


◎简  介
  影片根据真实事件改编。扎克扮演的大卫是个简单的人,生活乏善可陈。他是一个运钞车司机,虽然每天运送数不清的钱,可那都是别人的钱。唯一让他高兴的便是见到美貌的女同事凯利(克里斯汀·韦格饰),而也正是凯利,将他卷进了一桩改变人生的大事件。

  虽然合作的是一群超级不靠谱的劫匪,领头的是超级不靠谱的史蒂夫(欧文·威尔逊饰),抢劫计划也是漏洞百出,可大卫真的完成了不可能完成的任务,偷走了1700万美元现金。唯一的问题便是,他把这些钱交给了这群各怀鬼胎,互相出卖,背后捅刀的劫匪们,自己却成了指定的替罪羊。

  如今成了逃犯的大卫,必须躲避追捕,从一个欢乐无比的杀手(杰森·苏戴奇斯饰)枪口逃生,并想方设法让这群陷害他的人付出应有的代价。


Video
ID : 1
Format : AVC
Format/Info : Advanced Video Codec
Format profile : [email protected]
Format settings, CABAC : Yes
Format settings, ReFrames : 4 frames
Codec ID : V_MPEG4/ISO/AVC
Duration : 1h 34mn
Bit rate mode : Variable
Maximum bit rate : 38.0 Mbps
Width : 1 920 pixels
Height : 1 080 pixels
Display aspect ratio : 16:9
Frame rate mode : Constant
Frame rate : 23.976 (24000/1001) fps
Color space : YUV
Chroma subsampling : 4:2:0
Bit depth : 8 bits
Scan type : Progressive
Title : Masterminds.2016.1080p.BluRay.REMUX.AVC.DTS-HD.MA.5.1-FGT
Language : English
Default : No
Forced : No

Audio #1
ID : 2
Format : DTS
Format/Info : Digital Theater Systems
Format profile : MA / Core
Mode : 16
Format settings, Endianness : Big
Codec ID : A_DTS
Duration : 1h 34mn
Bit rate mode : Variable / Constant
Bit rate : Unknown / 1 509 Kbps
Channel(s) : 6 channels
Channel positions : Front: L C R, Side: L R, LFE
Sampling rate : 48.0 KHz
Frame rate : 93.750 fps (512 spf)
Bit depth : 24 bits
Compression mode : Lossless / Lossy
Title : Masterminds.2016.1080p.BluRay.REMUX.AVC.DTS-HD.MA.5.1-FGT
Language : English
Default : Yes
Forced : No

Audio #2
ID : 3
Format : DTS
Format/Info : Digital Theater Systems
Mode : 16
Format settings, Endianness : Big
Codec ID : A_DTS
Duration : 1h 34mn
Bit rate mode : Constant
Bit rate : 1 509 Kbps
Channel(s) : 6 channels
Channel positions : Front: L C R, Side: L R, LFE
Sampling rate : 48.0 KHz
Frame rate : 93.750 fps (512 spf)
Bit depth : 24 bits
Compression mode : Lossy
Stream size : 1 022 MiB (5%)
Title : Masterminds.2016.1080p.BluRay.REMUX.AVC.DTS-HD.MA.5.1-FGT
Language : English
Default : No
Forced : No

Audio #3
ID : 4
Format : AC-3
Format/Info : Audio Coding 3
Mode extension : CM (complete main)
Format settings, Endianness : Big
Codec ID : A_AC3
Duration : 1h 34mn
Bit rate mode : Constant
Bit rate : 224 Kbps
Channel(s) : 2 channels
Channel positions : Front: L R
Sampling rate : 48.0 KHz
Frame rate : 31.250 fps (1536 spf)
Compression mode : Lossy
Stream size : 152 MiB (1%)
Title : Masterminds.2016.1080p.BluRay.REMUX.AVC.DTS-HD.MA.5.1-FGT
Language : English
Default : No
Forced : No

Text
ID : 5
Format : PGS
Muxing mode : zlib
Codec ID : S_HDMV/PGS
Codec ID/Info : Picture based subtitle format used on BDs/HD-DVDs
Title : English-PGS
Language : English
Default : Yes
Forced : No






游客,如果您要查看本帖隐藏内容请回复,如果您想无广告、免回复、下载附件免4K币请开通VIP会员:VIP传送门


回复

使用道具 举报

签到天数: 12 天

[LV.3]偶尔看看II

新手上路

0

主题

35

帖子

5

积分

Rank: 1

积分
5
发表于 2017-1-12 18:05:48 | 显示全部楼层
dddddddddddddddddd
回复 支持 反对

使用道具 举报

该用户从未签到

新手上路

0

主题

90

帖子

10

积分

Rank: 1

积分
10
发表于 2017-1-12 19:22:27 | 显示全部楼层
[犯罪大师]Masterminds.2016.1080p.BluRay.REMUX.AVC.DTS-HD.MA.5.1-FGT 18GB  [复制链接]
回复 支持 反对

使用道具 举报

4K天堂官方交流QQ群:514024212
您需要登录后才可以回帖 登录 | 立即注册

本版积分规则

QQ|Archiver|手机版|小黑屋|4K电影下载  

GMT+8, 2017-3-28 18:08 , Processed in 0.262430 second(s), 32 queries , Gzip On.

Powered by Discuz! X3.2

© 2001-2013 Comsenz Inc.

快速回复 返回顶部 返回列表