4K天堂

 找回密码
 立即注册

QQ登录

只需一步,快速开始

查看: 267|回复: 4

[Remux] [死亡飞车2050]Death.Race.2050.2017.1080p.BluRay.REMUX.AVC.DTS-HD.MA.5.1-FGT 25G

[复制链接]

该用户从未签到

超级版主

1043

主题

1043

帖子

626

积分

Rank: 8Rank: 8

积分
626

宣传达人忠实会员论坛版主优秀版主超级版主

发表于 2017-1-12 15:54:39 | 显示全部楼层 |阅读模式

◎译  名 死亡飞车2050
◎片  名 Death Race 2050
◎年  代 2016
◎国  家 美国
◎类  别 喜剧/动作/科幻
◎语  言 英语
◎上映日期 January 17, 2017
◎IMDb评分 N/A
◎蓝光高清    http://www.4ktt.com
◎导  演 G.J. Echternkamp
◎主  演 马努·贝内特 Manu Bennett
      马尔科姆·麦克道威尔 Malcolm McDowell
      Marci Miller


◎简  介
  The year 2050 the planet has become overpopulated| to help control population the government develops a race. The Death Race. Annually competitors race across thecountry scoring points for killing people with their vehicles.

Video
ID : 1
Format : AVC
Format/Info : Advanced Video Codec
Format profile : [email protected]
Format settings, CABAC : Yes
Format settings, ReFrames : 4 frames
Codec ID : V_MPEG4/ISO/AVC
Duration : 1h 32mn
Bit rate mode : Variable
Maximum bit rate : 35.0 Mbps
Width : 1 920 pixels
Height : 1 080 pixels
Display aspect ratio : 16:9
Frame rate mode : Constant
Frame rate : 23.976 (24000/1001) fps
Color space : YUV
Chroma subsampling : 4:2:0
Bit depth : 8 bits
Scan type : Progressive
Title : Death.Race.2050.2017.1080p.BluRay.REMUX.AVC.DTS-HD.MA.5.1-FGT
Language : English
Default : No
Forced : No

Audio #1
ID : 2
Format : DTS
Format/Info : Digital Theater Systems
Format profile : MA / Core
Mode : 16
Format settings, Endianness : Big
Codec ID : A_DTS
Duration : 1h 32mn
Bit rate mode : Variable / Constant
Bit rate : Unknown / 1 509 Kbps
Channel(s) : 6 channels
Channel positions : Front: L C R, Side: L R, LFE
Sampling rate : 48.0 KHz
Frame rate : 93.750 fps (512 spf)
Bit depth : 24 bits
Compression mode : Lossless / Lossy
Title : Death.Race.2050.2017.1080p.BluRay.REMUX.AVC.DTS-HD.MA.5.1-FGT
Language : English
Default : Yes
Forced : No

Audio #2
ID : 3
Format : DTS
Format/Info : Digital Theater Systems
Mode : 16
Format settings, Endianness : Big
Codec ID : A_DTS
Duration : 1h 32mn
Bit rate mode : Constant
Bit rate : 1 509 Kbps
Channel(s) : 6 channels
Channel positions : Front: L C R, Side: L R, LFE
Sampling rate : 48.0 KHz
Frame rate : 93.750 fps (512 spf)
Bit depth : 24 bits
Compression mode : Lossy
Stream size : 1 001 MiB (4%)
Title : Death.Race.2050.2017.1080p.BluRay.REMUX.AVC.DTS-HD.MA.5.1-FGT
Language : English
Default : No
Forced : No

Audio #3
ID : 4
Format : DTS
Format/Info : Digital Theater Systems
Mode : 16
Format settings, Endianness : Big
Codec ID : A_DTS
Duration : 1h 32mn
Bit rate mode : Constant
Bit rate : 768 Kbps
Channel(s) : 6 channels
Channel positions : Front: L C R, Side: L R, LFE
Sampling rate : 48.0 KHz
Frame rate : 93.750 fps (512 spf)
Bit depth : 24 bits
Compression mode : Lossy
Stream size : 509 MiB (2%)
Title : Death.Race.2050.2017.1080p.BluRay.REMUX.AVC.DTS-HD.MA.5.1-FGT
Language : Spanish
Default : No
Forced : No

Audio #4
ID : 5
Format : DTS
Format/Info : Digital Theater Systems
Mode : 16
Format settings, Endianness : Big
Codec ID : A_DTS
Duration : 1h 32mn
Bit rate mode : Constant
Bit rate : 768 Kbps
Channel(s) : 6 channels
Channel positions : Front: L C R, Side: L R, LFE
Sampling rate : 48.0 KHz
Frame rate : 93.750 fps (512 spf)
Bit depth : 24 bits
Compression mode : Lossy
Stream size : 509 MiB (2%)
Title : Death.Race.2050.2017.1080p.BluRay.REMUX.AVC.DTS-HD.MA.5.1-FGT
Language : French
Default : No
Forced : No

Text #1
ID : 6
Format : PGS
Muxing mode : zlib
Codec ID : S_HDMV/PGS
Codec ID/Info : Picture based subtitle format used on BDs/HD-DVDs
Title : English-PGS
Language : English
Default : No
Forced : No

Text #2
ID : 7
Format : PGS
Muxing mode : zlib
Codec ID : S_HDMV/PGS
Codec ID/Info : Picture based subtitle format used on BDs/HD-DVDs
Title : Spanish-PGS
Language : Spanish
Default : No
Forced : No

Text #3
ID : 8
Format : PGS
Muxing mode : zlib
Codec ID : S_HDMV/PGS
Codec ID/Info : Picture based subtitle format used on BDs/HD-DVDs
Title : French-PGS
Language : French
Default : No
Forced : No

Text #4
ID : 9
Format : PGS
Muxing mode : zlib
Codec ID : S_HDMV/PGS
Codec ID/Info : Picture based subtitle format used on BDs/HD-DVDs
Title : Spanish-FORCED-PGS
Language : Spanish
Default : No
Forced : No

Text #5
ID : 10
Format : PGS
Muxing mode : zlib
Codec ID : S_HDMV/PGS
Codec ID/Info : Picture based subtitle format used on BDs/HD-DVDs
Title : French-FORCED-PGS
Language : French
Default : No
Forced : No






游客,如果您要查看本帖隐藏内容请回复,如果您想无广告、免回复、下载附件免4K币请开通VIP会员:VIP传送门


回复

使用道具 举报

签到天数: 307 天

[LV.8]以坛为家I

新手上路

0

主题

340

帖子

35

积分

Rank: 1

积分
35
发表于 2017-1-13 16:58:06 | 显示全部楼层
The year 2050 the planet has become overpopulated| to help control population the government develops a race. The Death Race. Annually competitors race across thecountry scoring points for killing people with their vehicles.
回复 支持 反对

使用道具 举报

该用户从未签到

新手上路

0

主题

14

帖子

2

积分

Rank: 1

积分
2
发表于 2017-1-14 14:00:36 | 显示全部楼层
字幕有吗啊啊
回复 支持 反对

使用道具 举报

签到天数: 1 天

[LV.1]初来乍到

新手上路

0

主题

126

帖子

14

积分

Rank: 1

积分
14
发表于 2017-1-15 09:13:36 | 显示全部楼层
好电影要分享
回复 支持 反对

使用道具 举报

签到天数: 10 天

[LV.3]偶尔看看II

新手上路

0

主题

28

帖子

4

积分

Rank: 1

积分
4
发表于 2017-1-15 14:28:08 | 显示全部楼层
搞它一个~~
回复

使用道具 举报

4K天堂官方交流QQ群:514024212
您需要登录后才可以回帖 登录 | 立即注册

本版积分规则

QQ|Archiver|手机版|小黑屋|4K电影下载  

GMT+8, 2017-5-26 00:07 , Processed in 0.339501 second(s), 42 queries , Gzip On.

Powered by Discuz! X3.2

© 2001-2013 Comsenz Inc.

快速回复 返回顶部 返回列表