4K天堂

 找回密码
 立即注册

QQ登录

只需一步,快速开始

查看: 147|回复: 1

[欧美] [亡命之徒]Killing.Zoe.1993.Directors.Cut.1080p.BluRay.x264.DTS-FGT 10.02GB

[复制链接]

签到天数: 9 天

[LV.3]偶尔看看II

管理员

5523

主题

5561

帖子

3328

积分

Rank: 9Rank: 9Rank: 9

积分
3328

灌水达人优秀版主超级版主荣誉管理

发表于 2017-1-12 15:50:58 | 显示全部楼层 |阅读模式

◎译  名 亡命之徒
◎片  名 Killing Zoe
◎年  代 1993
◎国  家 法国/美国
◎类  别 犯罪/剧情/惊悚
◎语  言 英语/法语
◎上映日期 1996-03-08
◎IMDb评分 6.5/10 from 17,559 users
◎豆瓣评分 6.3/10 from 380 users
◎蓝光高清    http://www.4ktt.com
◎片  长 96 分钟/France: 99 分钟(director's cut)
◎导  演 罗杰·阿夫瑞 Roger Avary
◎主  演 埃里克·斯托尔兹 Eric Stoltz
      朱莉·德尔佩 Julie Delpy
      Jean-Hugues Anglade


◎简  介
  Zed has only just arrived in the beautiful Paris and already he's up to no good. Having just slept with a call girl, he spends a night on the town with his dangerous friends. They all ...

Video
ID : 1
Format : AVC
Format/Info : Advanced Video Codec
Format profile : [email protected]
Format settings, CABAC : Yes
Format settings, ReFrames : 4 frames
Codec ID : V_MPEG4/ISO/AVC
Duration : 1h 39mn
Bit rate : 14.0 Mbps
Width : 1 920 pixels
Height : 1 032 pixels
Display aspect ratio : 1.85:1
Frame rate mode : Constant
Frame rate : 23.976 fps
Color space : YUV
Chroma subsampling : 4:2:0
Bit depth : 8 bits
Scan type : Progressive
Bits/(Pixel*Frame) : 0.294
Stream size : 9.30 GiB (93%)
Writing library : x264 core 85 r1442 781d300
Encoding settings : cabac=1 / ref=4 / deblock=1:-3:-3 / analyse=0x3:0x113 / me=umh / subme=9 / psy=1 / psy_rd=1.00:0.00 / mixed_ref=1 / me_range=32 / chroma_me=1 / trellis=2 / 8x8dct=1 / cqm=0 / deadzone=21,11 / fast_pskip=0 / chroma_qp_offset=-2 / threads=6 / sliced_threads=0 / nr=0 / decimate=0 / mbaff=0 / constrained_intra=0 / bframes=4 / b_pyramid=2 / b_adapt=2 / b_bias=0 / direct=3 / wpredb=1 / wpredp=2 / keyint=250 / keyint_min=25 / scenecut=40 / intra_refresh=0 / rc_lookahead=80 / rc=2pass / mbtree=1 / bitrate=13968 / ratetol=1000000000.0 / qcomp=0.80 / qpmin=10 / qpmax=51 / qpstep=4 / cplxblur=20.0 / qblur=0.5 / ip_ratio=1.40 / aq=1:0.80
Language : English
Default : Yes
Forced : No

Audio
ID : 2
Format : DTS
Format/Info : Digital Theater Systems
Mode : 16
Format settings, Endianness : Big
Codec ID : A_DTS
Duration : 1h 39mn
Bit rate mode : Constant
Bit rate : 755 Kbps
Channel(s) : 6 channels
Channel positions : Front: L C R, Side: L R, LFE
Sampling rate : 48.0 KHz
Frame rate : 93.750 fps (512 spf)
Bit depth : 24 bits
Compression mode : Lossy
Stream size : 534 MiB (5%)
Language : English
Default : Yes
Forced : No

Text
ID : 3
Format : UTF-8
Codec ID : S_TEXT/UTF8
Codec ID/Info : UTF-8 Plain Text
Language : English
Default : Yes
Forced : No






游客,如果您要查看本帖隐藏内容请回复,如果您想无广告、免回复、下载附件免4K币请开通VIP会员:VIP传送门


回复

使用道具 举报

签到天数: 123 天

[LV.7]常住居民III

初级会员

0

主题

526

帖子

54

积分

Rank: 2

积分
54
发表于 2017-1-14 15:12:53 | 显示全部楼层
没有中文介绍
回复 支持 反对

使用道具 举报

高清电影爱好者交流QQ群:524712442
您需要登录后才可以回帖 登录 | 立即注册

本版积分规则

QQ|Archiver|手机版|小黑屋|4K电影下载  

GMT+8, 2017-2-27 14:38 , Processed in 0.299364 second(s), 38 queries , Gzip On.

Powered by Discuz! X3.2

© 2001-2013 Comsenz Inc.

快速回复 返回顶部 返回列表