4K天堂

 找回密码
 立即注册
查看: 268|回复: 17

[尚气与十环传奇].2021.1080p.3D.BluRay.Half-SBS.x264.DTS-HD.MA.7.1-FGT 17.95GB

[复制链接]

该用户从未签到

992

主题

994

帖子

1万

积分

版主

Rank: 7Rank: 7Rank: 7

积分
10768
发表于 2022-8-10 17:28:57 | 显示全部楼层 |阅读模式

◎译  名 尚气与十环传奇 / 尚气与十戒传奇 / 尚气与十环帮传奇(港) / 尚气 / 上气 / 商奇 / 尚气与十指环传奇 / 上气与十戒传奇 / 上气:十戒传奇 / 上气与十诫传说
◎片  名 Shang-Chi and the Legend of the Ten Rings
◎年  代 2021
◎产  地 美国 / 澳大利亚
◎类  别 动作 / 奇幻 / 冒险
◎语  言 英语 / 汉语普通话
◎上映日期 2021-09-03(美国) / 2021-11-12(美国网络)
◎4K电影下载 http://www.4ktt.com/
◎豆瓣评分 6.1/10 (197897人评价)
◎豆瓣链接 https://movie.douban.com/subject/30394797/
◎片  长 132分钟
◎导  演 德斯汀·克里顿 Destin Cretton (id:1310608)
◎编  剧 戴夫·卡拉汉姆 Dave Callaham (id:1040838)
       德斯汀·克里顿 Destin Cretton (id:1310608)
       安德鲁·兰纳姆 Andrew Lanham (id:1369951)
       史蒂夫·恩格尔哈特 Steve Englehart (id:1047311)
       吉姆·斯特林 Jim Starlin (id:1360715)
◎演  员 刘思慕 Simu Liu (id:1369905)
       梁朝伟 Tony Leung Chiu Wai (id:1115918)
       奥卡菲娜 Awkwafina (id:1360857)
       张梦儿 Meng'er Zhang (id:1448400)
       陈法拉 Fala Chen (id:1033379)
       杨紫琼 Michelle Yeoh (id:1022664)
       元华 Wah Yuen (id:1050240)
       本尼迪克特·王 Benedict Wong (id:1301179)
       弗罗里安·穆特鲁 Florian Munteanu (id:1403708)
       黎明 Andy Le (id:1456768)
       本·金斯利 Ben Kingsley (id:1054393)
       许玮伦 Stephanie Hsu (id:1356993)
       库纳尔·杜德赫克 Kunal Dudheker (id:1427483)
       周采芹 Tsai Chin (id:1036870)
       乔迪·朗 Jodi Long (id:1121121)
       达拉斯·刘 Dallas Liu (id:1461046)
       钱信伊 Ronny Chieng (id:1392949)
       费尔南多·钱 Fernando Chien (id:1339501)
       扎克·切利 Zach Cherry (id:1390628)
       刘家勇 Kar-Yung Lau (id:1326224)
       赫小哈 Harmonie He (id:1429406)
       琳内特·柯伦 Lynette Curran (id:1281625)
       迪·布拉雷·贝克尔 Dee Bradley Baker (id:1059406)
       布丽·拉尔森 Brie Larson (id:1027194)
       马克·鲁弗洛 Mark Ruffalo (id:1040505)
       蒂姆·罗斯 Tim Roth (id:1025176)
       亚历山大·陈 Alexandre Chen (id:1069959)
       凯文·费奇 Kevin Feige (id:1340830)
       查尔斯·纽沃斯 Charles Newirth (id:1293093)
       比尔·波普 Bill Pope (id:1018460)
       乌尔里希·蔡德勒 Ulrich Zeidler (id:1163351)
       苏·钱恩 Sue Chan (id:1468127)
       凯姆·巴雷特 Kym Barrett (id:1277971)
       克里斯托弗·汤森 Christopher Townsend (id:1337967)
       黎唯 Brian Le (id:1456759)
       布拉德利·詹姆斯·艾伦 Bradley James Allan (id:1056473)

◎简  介  
  故事发生在《复仇者联盟4:终局之战》事件之后,尚气(刘思慕 饰)自幼接受父亲(梁朝伟 饰)的铁血战斗培训,精通各种武术招式。长大后为了逃离家乡,他改名换姓展开新生活,认识了新挚友凯蒂(奥卡菲娜 饰),平静日子就这样过了十年,直到过去再度找上门……

◎获奖情况 (共4项)
  第94届奥斯卡金像奖 (2022)
  最佳视觉效果(提名)

  第28届美国演员工会奖 (2022)
  电影最佳特技群戏(提名)

  第24届美国服装设计工会奖 (2022)
  科幻/奇幻题材电影最佳服装设计(提名)
   └──凯姆·巴雷特 (id:1277971)

  第27届美国评论家选择电影奖 (2022)
  最佳视觉效果(提名)

Video
ID                                       : 1
Format                                   : AVC
Format/Info                              : Advanced Video Codec
Format profile                           : [email protected]
Format settings                          : CABAC / 2 Ref Frames
Format settings, CABAC                   : Yes
Format settings, Reference frames        : 2 frames
Codec ID                                 : V_MPEG4/ISO/AVC
Duration                                 : 2 h 12 min
Bit rate                                 : 13.4 Mb/s
Nominal bit rate                         : 15.5 Mb/s
Width                                    : 1 920 pixels
Height                                   : 1 080 pixels
Display aspect ratio                     : 16:9
Frame rate mode                          : Constant
Frame rate                               : 23.976 (24000/1001/189150) FPS
Color space                              : YUV
Chroma subsampling                       : 4:2:0
Bit depth                                : 8 bits
Scan type                                : Progressive
Bits/(Pixel*Frame)                       : 0.269
Stream size                              : 12.4 GiB (69%)
Writing library                          : x264 core 148
Encoding settings                        : cabac=1 / ref=1 / deblock=1:-1:-1 / analyse=0x3:0 / me=hex / subme=5 / psy=0 / mixed_ref=0 / me_range=16 / chroma_me=1 / trellis=0 / 8x8dct=1 / cqm=0 / deadzone=21,11 / fast_pskip=0 / chroma_qp_offset=0 / threads=48 / lookahead_threads=8 / sliced_threads=0 / nr=0 / decimate=1 / interlaced=0 / bluray_compat=0 / constrained_intra=0 / bframes=2 / b_pyramid=0 / b_adapt=1 / b_bias=0 / direct=1 / weightb=0 / open_gop=0 / weightp=0 / keyint=24 / keyint_min=13 / scenecut=40 / intra_refresh=0 / rc_lookahead=24 / rc=cbr / mbtree=0 / bitrate=15500 / ratetol=1.0 / qcomp=0.60 / qpmin=0 / qpmax=69 / qpstep=4 / vbv_maxrate=15500 / vbv_bufsize=15500 / nal_hrd=none / filler=0 / ip_ratio=1.40 / pb_ratio=1.30 / aq=1:1.00
Default                                  : Yes
Forced                                   : No
Color range                              : Limited
Color primaries                          : BT.709
Transfer characteristics                 : BT.709
Matrix coefficients                      : BT.709

Audio #1
ID                                       : 2
Format                                   : DTS XLL
Format/Info                              : Digital Theater Systems
Commercial name                          : DTS-HD Master Audio
Codec ID                                 : A_DTS
Duration                                 : 2 h 12 min
Bit rate mode                            : Variable
Bit rate                                 : 3 960 kb/s
Channel(s)                               : 8 channels
Channel layout                           : C L R LFE Lb Rb Lss Rss
Sampling rate                            : 48.0 kHz
Frame rate                               : 93.750 FPS (512 SPF)
Bit depth                                : 24 bits
Compression mode                         : Lossless
Stream size                              : 3.66 GiB (20%)
Title                                    : DTS-HD MA 7.1
Language                                 : English
Default                                  : Yes
Forced                                   : No

Audio #2
ID                                       : 3
Format                                   : DTS XBR
Format/Info                              : Digital Theater Systems
Commercial name                          : DTS-HD High Resolution Audio
Codec ID                                 : A_DTS
Duration                                 : 2 h 12 min
Bit rate mode                            : Constant
Bit rate                                 : 2 046 kb/s
Channel(s)                               : 8 channels
Channel layout                           : C L R LFE Lb Rb Lss Rss
Sampling rate                            : 48.0 kHz
Frame rate                               : 93.750 FPS (512 SPF)
Bit depth                                : 24 bits
Compression mode                         : Lossy
Stream size                              : 1.89 GiB (11%)
Title                                    : DTS-HR 5.1
Language                                 : Japanese
Default                                  : No
Forced                                   : No

Text #1
ID                                       : 4
Format                                   : PGS
Muxing mode                              : zlib
Codec ID                                 : S_HDMV/PGS
Codec ID/Info                            : Picture based subtitle format used on BDs/HD-DVDs
Duration                                 : 1 h 55 min
Bit rate                                 : 5 104 b/s
Frame rate                               : 0.053 FPS
Count of elements                        : 370
Stream size                              : 4.23 MiB (0%)
Title                                    : FORCED
Language                                 : English
Default                                  : No
Forced                                   : No

Text #2
ID                                       : 5
Format                                   : PGS
Muxing mode                              : zlib
Codec ID                                 : S_HDMV/PGS
Codec ID/Info                            : Picture based subtitle format used on BDs/HD-DVDs
Duration                                 : 2 h 10 min
Bit rate                                 : 31.4 kb/s
Frame rate                               : 0.288 FPS
Count of elements                        : 2262
Stream size                              : 29.4 MiB (0%)
Language                                 : English
Default                                  : Yes
Forced                                   : No

Text #3
ID                                       : 6
Format                                   : PGS
Muxing mode                              : zlib
Codec ID                                 : S_HDMV/PGS
Codec ID/Info                            : Picture based subtitle format used on BDs/HD-DVDs
Duration                                 : 2 h 11 min
Bit rate                                 : 24.8 kb/s
Frame rate                               : 0.269 FPS
Count of elements                        : 2122
Stream size                              : 23.3 MiB (0%)
Language                                 : Japanese
Default                                  : No
Forced                                   : No

Menu
00:00:00.000                             : en:Chapter 01
00:03:52.857                             : en:Chapter 02
00:09:28.985                             : en:Chapter 03
00:16:17.184                             : en:Chapter 04
00:22:47.491                             : en:Chapter 05
00:31:59.667                             : en:Chapter 06
00:42:49.483                             : en:Chapter 07
00:52:21.054                             : en:Chapter 08
00:56:51.324                             : en:Chapter 09
01:00:35.006                             : en:Chapter 10
01:08:46.122                             : en:Chapter 11
01:15:55.050                             : en:Chapter 12
01:19:51.286                             : en:Chapter 13
01:29:49.675                             : en:Chapter 14
01:36:45.800                             : en:Chapter 15
01:47:00.622                             : en:Chapter 16
01:55:25.293                             : en:Chapter 17
02:00:07.241                             : en:Chapter 18
02:01:46.132                             : en:Chapter 19
02:04:08.858                             : en:Chapter 20
02:10:39.248                             : en:Chapter 21




本帖子中包含更多资源

您需要 登录 才可以下载或查看,没有帐号?立即注册

x
回复

使用道具 举报

  • TA的每日心情
    奋斗
    2022-11-14 19:25
  • 签到天数: 5 天

    [LV.2]偶尔看看I

    0

    主题

    15

    帖子

    36

    积分

    新手上路

    Rank: 1

    积分
    36
    发表于 2022-9-3 22:16:00 | 显示全部楼层
    还以为是国产的呢!谢谢前辈分享
    回复

    使用道具 举报

    该用户从未签到

    0

    主题

    17

    帖子

    19

    积分

    新手上路

    Rank: 1

    积分
    19
    发表于 2022-9-6 21:56:50 | 显示全部楼层

    还以为是国产的呢!谢谢前辈分享
    回复

    使用道具 举报

  • TA的每日心情
    奋斗
    昨天 00:06
  • 签到天数: 102 天

    [LV.6]常住居民II

    0

    主题

    171

    帖子

    101

    积分

    初级会员

    Rank: 2

    积分
    101
    发表于 2022-9-6 23:50:50 | 显示全部楼层
    特效不错东方元素只剩图腾了
    回复

    使用道具 举报

    该用户从未签到

    0

    主题

    47

    帖子

    18

    积分

    新手上路

    Rank: 1

    积分
    18
    发表于 2022-9-7 11:13:45 | 显示全部楼层
    谢谢楼主分享
    回复

    使用道具 举报

    该用户从未签到

    0

    主题

    35

    帖子

    16

    积分

    新手上路

    Rank: 1

    积分
    16
    发表于 2022-9-12 18:28:35 | 显示全部楼层

    谢谢楼主分享
    回复

    使用道具 举报

    该用户从未签到

    0

    主题

    10

    帖子

    5

    积分

    新手上路

    Rank: 1

    积分
    5
    发表于 2022-9-18 09:15:46 | 显示全部楼层
    多谢楼主呀
    回复

    使用道具 举报

    该用户从未签到

    0

    主题

    6

    帖子

    5

    积分

    新手上路

    Rank: 1

    积分
    5
    发表于 2022-9-18 19:50:22 | 显示全部楼层
    JHGJYJMTYMHGMGN
    回复

    使用道具 举报

    该用户从未签到

    0

    主题

    20

    帖子

    8

    积分

    新手上路

    Rank: 1

    积分
    8
    发表于 2022-9-20 17:02:33 | 显示全部楼层
    资源非常好,赶紧下载收藏了。
    回复

    使用道具 举报

    该用户从未签到

    0

    主题

    14

    帖子

    11

    积分

    新手上路

    Rank: 1

    积分
    11
    发表于 2022-9-28 02:06:49 | 显示全部楼层
    赶紧收藏!
    回复

    使用道具 举报

    您需要登录后才可以回帖 登录 | 立即注册

    本版积分规则

    为防丢失网站网址,敬请关注官方微信公众号,再也不会迷路!
    4K天堂会一路坚持,共建高清电影爱好者的精神家园。

    Archiver|手机版|小黑屋|4K电影下载

    GMT+8, 2022-11-29 00:02 , Processed in 0.156250 second(s), 26 queries , Gzip On.

    Powered by Discuz! X3.4

    Copyright © 2001-2020, Tencent Cloud.

    快速回复 返回顶部 返回列表