4K天堂

 找回密码
 立即注册
查看: 957|回复: 92

[侏罗纪世界3].2022.THEATRICAL.2160p.BluRay.REMUX.HEVC.DTS-X.7.1-FGT 62.17GB

  [复制链接]

该用户从未签到

992

主题

994

帖子

1万

积分

版主

Rank: 7Rank: 7Rank: 7

积分
10767
发表于 2022-8-18 15:55:40 | 显示全部楼层 |阅读模式

◎标  题 侏罗纪世界3
◎译  名 侏罗纪世界3:统治 / 侏罗纪世界:统治霸权(港) / 侏罗纪世界:统霸天下(台) / 侏罗纪公园6 / Jurassic Park 6
◎片  名 Jurassic World: Dominion
◎年  代 2022
◎产  地 美国
◎类  别 动作 / 科幻 / 冒险
◎语  言 英语
◎上映日期 2022-06-10(美国/中国大陆) / 2022-06-01(韩国)
◎IMDb评分 6.4/10 (2331人评价)
◎4K电影下载 http://www.4ktt.com/
◎豆瓣链接 https://movie.douban.com/subject/26873582/
◎片  长 146分钟
◎导  演 科林·特莱沃若 Colin Trevorrow
◎编  剧 科林·特莱沃若 Colin Trevorrow
       艾米丽·卡迈克尔 Emily Carmichael
       德里克·康纳利 Derek Connolly
       迈克尔·克莱顿 Michael Crichton
◎演  员 克里斯·帕拉特 Chris Pratt
       布莱丝·达拉斯·霍华德 Bryce Dallas Howard
       山姆·尼尔 Sam Neill
       劳拉·邓恩 Laura Dern
       杰夫·高布伦 Jeff Goldblum
       伊莎贝拉·瑟蒙 Isabella Sermon
       马莫多·阿西 Mamoudou Athie
       丹妮艾拉·皮内达 Daniella Pineda
       迪辰·拉克曼 Dichen Lachman
       黄荣亮 B.D. Wong
       克里斯托弗·普拉哈 Kristoffer Polaha
       奥玛·希 Omar Sy
       贾斯蒂斯·史密斯 Justice Smith
       坎贝尔·斯科特 Campbell Scott
       德汪达·怀斯 DeWanda Wise
       斯科特·黑兹 Scott Haze
       Freya Parker Freya Parker
       瓦拉达·塞图 Varada Sethu
       格利尼斯·戴维斯 Glynis Davies
       埃尔娃·崔尔 Elva Trill
       柯基·法尔考 Cokey Falkow
       伯纳多·桑托斯 Bernardo Santos
       迪米特里“维加斯”蒂瓦约 Dimitri 'Vegas' Thivaios
       小恩佐·斯奎利诺 Enzo Squillino Jr.
       特蕾莎·森登·加西亚 Teresa Cendon-Garcia
       杰克·约翰逊 Jake M. Johnson
       乔·阿泽帕迪 Joe Azzopardi
       帕特里克·克劳利 Patrick Crowley
       弗兰克·马歇尔 Frank Marshall
       史蒂文·斯皮尔伯格 Steven Spielberg
       科林·特莱沃若 Colin Trevorrow
       温斯顿·阿佐帕迪 Winston Azzopardi
       迈克·吉亚奇诺 Michael Giacchino
       约翰·施瓦兹曼 John Schwartzman
       马克·桑格 Mark Sanger
       妮娜·古德 Nina Gold
       凯文·詹金斯 Kevin Jenkins
       理查德·罗伯茨 Richard Roberts

◎简  介  
  影片为《侏罗纪世界》系列的完结篇,故事的开篇设定在纳布拉尔岛被摧毁的四年后。如今,恐龙在世界各地与人类共同生活、共同捕猎。这一脆弱的平衡将重塑未来,并最终决定人类能否与史上最可怕生物共享这颗星球,并继续站在食物链的顶端。
Video
ID                                       : 1
ID in the original source medium         : 4113 (0x1011)
Format                                   : HEVC
Format/Info                              : High Efficiency Video Coding
Format profile                           : Main [email protected]@High
HDR format                               : Dolby Vision, Version 1.0, dvhe.07.06, BL+EL+RPU, Blu-ray compatible / SMPTE ST 2086, HDR10 compatible
Codec ID                                 : V_MPEGH/ISO/HEVC
Duration                                 : 2 h 26 min
Bit rate                                 : 52.5 Mb/s
Width                                    : 3 840 pixels
Height                                   : 2 160 pixels
Display aspect ratio                     : 16:9
Frame rate mode                          : Constant
Frame rate                               : 23.976 (24000/1001/189150) FPS
Color space                              : YUV
Chroma subsampling                       : 4:2:0 (Type 2)
Bit depth                                : 10 bits
Bits/(Pixel*Frame)                       : 0.264
Stream size                              : 53.9 GiB (87%)
Language                                 : English
Default                                  : No
Forced                                   : No
Color range                              : Limited
Color primaries                          : BT.2020
Transfer characteristics                 : PQ
Matrix coefficients                      : BT.2020 non-constant
Mastering display color primaries        : Display P3
Mastering display luminance              : min: 0.0010 cd/m2, max: 1000 cd/m2
Maximum Content Light Level              : 599 cd/m2
Maximum Frame-Average Light Level        : 121 cd/m2
Original source medium                   : Blu-ray

Audio #1
ID                                       : 2
ID in the original source medium         : 4352 (0x1100)
Format                                   : DTS XLL X
Format/Info                              : Digital Theater Systems
Commercial name                          : DTS-HD Master Audio
Codec ID                                 : A_DTS
Duration                                 : 2 h 26 min
Bit rate mode                            : Variable
Bit rate                                 : 3 309 kb/s
Channel(s)                               : 8 channels
Channel(s)_Original                      : Object Based
ChannelLayout_Original                   : Object Based
Sampling rate                            : 48.0 kHz
Frame rate                               : 93.750 FPS (512 SPF)
Bit depth                                : 24 bits
Stream size                              : 3.40 GiB (5%)
Title                                    : DTS-X 7.1
Language                                 : English
Default                                  : Yes
Forced                                   : No
Original source medium                   : Blu-ray

Audio #2
ID                                       : 3
Format                                   : AC-3
Format/Info                              : Audio Coding 3
Commercial name                          : Dolby Digital
Codec ID                                 : A_AC3
Duration                                 : 2 h 26 min
Bit rate mode                            : Constant
Bit rate                                 : 640 kb/s
Channel(s)                               : 6 channels
Channel layout                           : L R C LFE Ls Rs
Sampling rate                            : 48.0 kHz
Frame rate                               : 31.250 FPS (1536 SPF)
Compression mode                         : Lossy
Stream size                              : 673 MiB (1%)
Title                                    : DD 5.1
Language                                 : English
Service kind                             : Complete Main
Default                                  : No
Forced                                   : No

Audio #3
ID                                       : 4
ID in the original source medium         : 4353 (0x1101)
Format                                   : DTS XBR
Format/Info                              : Digital Theater Systems
Commercial name                          : DTS-HD High Resolution Audio
Codec ID                                 : A_DTS
Duration                                 : 2 h 26 min
Bit rate mode                            : Constant
Bit rate                                 : 2 046 kb/s
Channel(s)                               : 8 channels
Channel layout                           : C L R LFE Lb Rb Lss Rss
Sampling rate                            : 48.0 kHz
Frame rate                               : 93.750 FPS (512 SPF)
Bit depth                                : 24 bits
Compression mode                         : Lossy
Stream size                              : 2.10 GiB (3%)
Title                                    : DTS-HR 7.1
Language                                 : Spanish
Default                                  : No
Forced                                   : No
Original source medium                   : Blu-ray

Audio #4
ID                                       : 5
ID in the original source medium         : 4354 (0x1102)
Format                                   : DTS XBR
Format/Info                              : Digital Theater Systems
Commercial name                          : DTS-HD High Resolution Audio
Codec ID                                 : A_DTS
Duration                                 : 2 h 26 min
Bit rate mode                            : Constant
Bit rate                                 : 2 046 kb/s
Channel(s)                               : 8 channels
Channel layout                           : C L R LFE Lb Rb Lss Rss
Sampling rate                            : 48.0 kHz
Frame rate                               : 93.750 FPS (512 SPF)
Bit depth                                : 24 bits
Compression mode                         : Lossy
Stream size                              : 2.10 GiB (3%)
Title                                    : DTS-HR 7.1
Language                                 : French
Default                                  : No
Forced                                   : No
Original source medium                   : Blu-ray

Text #1
ID                                       : 6
Format                                   : UTF-8
Codec ID                                 : S_TEXT/UTF8
Codec ID/Info                            : UTF-8 Plain Text
Duration                                 : 2 h 14 min
Bit rate                                 : 47 b/s
Frame rate                               : 0.188 FPS
Count of elements                        : 1516
Stream size                              : 46.9 KiB (0%)
Language                                 : English
Default                                  : Yes
Forced                                   : No

Text #2
ID                                       : 7
Format                                   : UTF-8
Codec ID                                 : S_TEXT/UTF8
Codec ID/Info                            : UTF-8 Plain Text
Duration                                 : 2 h 15 min
Bit rate                                 : 55 b/s
Frame rate                               : 0.226 FPS
Count of elements                        : 1837
Stream size                              : 55.0 KiB (0%)
Title                                    : SDH
Language                                 : English
Default                                  : No
Forced                                   : No

Text #3
ID                                       : 8
ID in the original source medium         : 4768 (0x12A0)
Format                                   : PGS
Muxing mode                              : zlib
Codec ID                                 : S_HDMV/PGS
Codec ID/Info                            : Picture based subtitle format used on BDs/HD-DVDs
Duration                                 : 2 h 24 min
Bit rate                                 : 36.5 kb/s
Frame rate                               : 0.429 FPS
Count of elements                        : 3708
Stream size                              : 37.7 MiB (0%)
Language                                 : English
Default                                  : No
Forced                                   : No
Original source medium                   : Blu-ray

Text #4
ID                                       : 9
ID in the original source medium         : 4769 (0x12A1)
Format                                   : PGS
Muxing mode                              : zlib
Codec ID                                 : S_HDMV/PGS
Codec ID/Info                            : Picture based subtitle format used on BDs/HD-DVDs
Duration                                 : 2 h 26 min
Bit rate                                 : 30.3 kb/s
Frame rate                               : 0.354 FPS
Count of elements                        : 3108
Stream size                              : 31.7 MiB (0%)
Language                                 : Spanish
Default                                  : No
Forced                                   : No
Original source medium                   : Blu-ray

Text #5
ID                                       : 10
ID in the original source medium         : 4770 (0x12A2)
Format                                   : PGS
Muxing mode                              : zlib
Codec ID                                 : S_HDMV/PGS
Codec ID/Info                            : Picture based subtitle format used on BDs/HD-DVDs
Duration                                 : 2 h 26 min
Bit rate                                 : 31.6 kb/s
Frame rate                               : 0.350 FPS
Count of elements                        : 3076
Stream size                              : 33.0 MiB (0%)
Language                                 : French
Default                                  : No
Forced                                   : No
Original source medium                   : Blu-ray

Text #6
ID                                       : 11
ID in the original source medium         : 4771 (0x12A3)
Format                                   : PGS
Muxing mode                              : zlib
Codec ID                                 : S_HDMV/PGS
Codec ID/Info                            : Picture based subtitle format used on BDs/HD-DVDs
Duration                                 : 2 h 26 min
Bit rate                                 : 1 246 b/s
Frame rate                               : 0.014 FPS
Count of elements                        : 126
Stream size                              : 1.30 MiB (0%)
Title                                    : FORCED
Language                                 : Spanish
Default                                  : No
Forced                                   : No
Original source medium                   : Blu-ray

Text #7
ID                                       : 12
ID in the original source medium         : 4772 (0x12A4)
Format                                   : PGS
Muxing mode                              : zlib
Codec ID                                 : S_HDMV/PGS
Codec ID/Info                            : Picture based subtitle format used on BDs/HD-DVDs
Duration                                 : 2 h 26 min
Bit rate                                 : 1 215 b/s
Frame rate                               : 0.015 FPS
Count of elements                        : 136
Stream size                              : 1.27 MiB (0%)
Title                                    : FORCED
Language                                 : French
Default                                  : No
Forced                                   : No
Original source medium                   : Blu-ray

Menu
00:00:00.000                             : en:Chapter 01
00:03:41.179                             : en:Chapter 02
00:07:20.189                             : en:Chapter 03
00:17:56.366                             : en:Chapter 04
00:26:25.333                             : en:Chapter 05
00:33:33.469                             : en:Chapter 06
00:38:30.975                             : en:Chapter 07
00:45:22.594                             : en:Chapter 08
00:54:45.991                             : en:Chapter 09
01:04:06.801                             : en:Chapter 10
01:14:46.148                             : en:Chapter 11
01:20:02.130                             : en:Chapter 12
01:27:35.667                             : en:Chapter 13
01:32:56.904                             : en:Chapter 14
01:41:48.310                             : en:Chapter 15
01:50:52.979                             : en:Chapter 16
01:55:13.406                             : en:Chapter 17
02:00:29.472                             : en:Chapter 18
02:09:33.182                             : en:Chapter 19
02:16:15.250                             : en:Chapter 20




本帖子中包含更多资源

您需要 登录 才可以下载或查看,没有帐号?立即注册

x
回复

使用道具 举报

该用户从未签到

0

主题

149

帖子

86

积分

初级会员

Rank: 2

积分
86
发表于 2022-8-27 10:36:57 | 显示全部楼层
谢谢楼主的视频发布,
回复

使用道具 举报

该用户从未签到

0

主题

62

帖子

15

积分

新手上路

Rank: 1

积分
15
发表于 2022-8-27 17:09:11 | 显示全部楼层

谢谢楼主的视频发布,
回复

使用道具 举报

  • TA的每日心情
    开心
    2022-10-14 20:25
  • 签到天数: 45 天

    [LV.5]常住居民I

    0

    主题

    96

    帖子

    73

    积分

    初级会员

    Rank: 2

    积分
    73
    发表于 2022-8-27 17:22:05 | 显示全部楼层
    +++++++++++++++++
    回复

    使用道具 举报

    该用户从未签到

    0

    主题

    100

    帖子

    39

    积分

    新手上路

    Rank: 1

    积分
    39
    发表于 2022-8-27 19:27:54 | 显示全部楼层
    谢谢楼主的视频发布
    回复

    使用道具 举报

    该用户从未签到

    0

    主题

    50

    帖子

    6

    积分

    新手上路

    Rank: 1

    积分
    6
    发表于 2022-8-27 20:30:53 | 显示全部楼层
    三个地方根深蒂固
    回复

    使用道具 举报

    该用户从未签到

    0

    主题

    2

    帖子

    3

    积分

    新手上路

    Rank: 1

    积分
    3
    发表于 2022-8-28 00:54:45 | 显示全部楼层
    多谢楼主分享
    回复

    使用道具 举报

    该用户从未签到

    0

    主题

    2

    帖子

    6

    积分

    新手上路

    Rank: 1

    积分
    6
    发表于 2022-8-28 08:03:53 | 显示全部楼层
    谢谢楼主 谢谢楼主
    回复

    使用道具 举报

    该用户从未签到

    0

    主题

    15

    帖子

    6

    积分

    新手上路

    Rank: 1

    积分
    6
    发表于 2022-8-28 08:03:54 | 显示全部楼层
    谢谢楼主的视频发布,
    回复

    使用道具 举报

  • TA的每日心情
    开心
    3 天前
  • 签到天数: 27 天

    [LV.4]偶尔看看III

    0

    主题

    57

    帖子

    20

    积分

    新手上路

    Rank: 1

    积分
    20
    发表于 2022-8-28 10:33:10 | 显示全部楼层
    感谢楼主分享
    回复

    使用道具 举报

    您需要登录后才可以回帖 登录 | 立即注册

    本版积分规则

    为防丢失网站网址,敬请关注官方微信公众号,再也不会迷路!
    4K天堂会一路坚持,共建高清电影爱好者的精神家园。

    Archiver|手机版|小黑屋|4K电影下载

    GMT+8, 2022-11-28 22:24 , Processed in 0.187500 second(s), 26 queries , Gzip On.

    Powered by Discuz! X3.4

    Copyright © 2001-2020, Tencent Cloud.

    快速回复 返回顶部 返回列表