4K天堂

 找回密码
 立即注册
查看: 1145|回复: 25

[Remux] [尚气与十环传奇].2021.1080p.BluRay.REMUX.AVC.DTS-HD.MA.TrueHD.7.1-FGT 44.9GB

[复制链接]

该用户从未签到

5128

主题

5130

帖子

2万

积分

版主

Rank: 7Rank: 7Rank: 7

积分
22092
发表于 2021-11-11 09:52:54 | 显示全部楼层 |阅读模式


◎译  名 尚气与十环传奇/上气/上气:十戒传奇/上气与十戒传奇/上气与十诫传说/商奇/尚气/尚气与十戒传奇/尚气与十指环传奇/尚气与十环帮传奇(港)
◎片  名 Shang-Chi and the Legend of the Ten Rings
◎年  代 2021
◎产  地 美国,澳大利亚
◎类  别 动作 / 科幻 / 冒险
◎语  言 英语,汉语普通话
◎上映日期 2021-09-03(美国) / 2021-11-12(美国网络)
◎豆瓣评分 /10 from 0 users
◎豆瓣链接 https://movie.douban.com/subject/30394797/
◎片  长 132分钟
◎导  演 德斯汀·克里顿 Destin Cretton
◎编  剧 戴夫·卡拉汉姆 Dave Callaham / 史蒂夫·恩格尔哈特 Steve Englehart / 吉姆·斯特林 Jim Starlin / 德斯汀·克里顿 Destin Cretton
◎主  演 刘思慕 Simu Liu
      梁朝伟 Tony Leung Chiu Wai
      奥卡菲娜 Awkwafina
      张梦儿 Meng'er Zhang
      陈法拉 Fala Chen
      杨紫琼 Michelle Yeoh
      元华 Wah Yuen
      本尼迪克特·王 Benedict Wong
      弗罗里安·穆特鲁 Florian Munteanu
      安迪·黎 Andy Le
      本·金斯利 Ben Kingsley
      斯蒂芬妮·许 Stephanie Hsu
      库纳尔·杜德赫克 Kunal Dudheker
      周采芹 Tsai Chin
      乔迪·朗 Jodi Long
      达拉斯·刘 Dallas Liu
      钱信伊 Ronny Chieng
      费尔南多·钱 Fernando Chien
      扎克·切利 Zach Cherry
      刘家勇 Kar-Yung Lau
      赫小哈 Harmonie He
      Lynette Curran Lynette Curran
      迪·布拉雷·贝克尔 Dee Bradley Baker
      布丽·拉尔森 Brie Larson
      马克·鲁弗洛 Mark Ruffalo
      蒂姆·罗斯 Tim Roth
      亚历山大·陈 Alexandre Chen

◎标  签 漫威 | 超级英雄 | 美国 | 2021 | 动作 | 漫威电影宇宙 | 科幻 | 奇幻

◎简  介  

  故事发生在《复仇者联盟4:终局之战》事件之后,尚气(刘思慕 饰)卷入秘密的十环帮组织,被迫面对自己隐秘的过去经历。
Video
ID : 1
ID in the original source medium : 4113 (0x1011)
Format : AVC
Format/Info : Advanced Video Codec
Format profile : [email protected]
Format settings : CABAC / 4 Ref Frames
Format settings, CABAC : Yes
Format settings, Reference frames : 4 frames
Codec ID : V_MPEG4/ISO/AVC
Duration : 2 h 12 min
Bit rate mode : Variable
Bit rate : 30.1 Mb/s
Maximum bit rate : 34.9 Mb/s
Width : 1 920 pixels
Height : 1 080 pixels
Display aspect ratio : 16:9
Frame rate mode : Constant
Frame rate : 23.976 (24000/4KTT189150) FPS
Color space : YUV
Chroma subsampling : 4:2:0
Bit depth : 8 bits
Scan type : Progressive
Bits/(Pixel*Frame) : 0.605
Stream size : 27.8 GiB (62%)
Language : English
Default : No
Forced : No
Original source medium : Blu-ray

Audio #1
ID : 2
ID in the original source medium : 4352 (0x14KTT
Format : MLP FBA 16-ch
Format/Info : Meridian Lossless Packing FBA with 16-channel presentation
Commercial name : Dolby TrueHD with Dolby Atmos
Codec ID : A_TRUEHD
Duration : 2 h 12 min
Bit rate mode : Variable
Bit rate : 4 214 kb/s
Maximum bit rate : 7 200 kb/s
Channel(s) : 8 channels
Channel layout : L R C LFE Ls Rs Lb Rb
Sampling rate : 48.0 kHz
Frame rate : 1 200.000 FPS (40 SPF)
Bit depth : 24 bits
Compression mode : Lossless
Stream size : 3.90 GiB (9%)
Title : TrueHD 7.1 Atmos
Language : English
Default : Yes
Forced : No
Original source medium : Blu-ray
Number of dynamic objects : 13
Bed channel count : 1 channel
Bed channel configuration : LFE

Audio #2
ID : 3
ID in the original source medium : 4352 (0x14KTT
Format : DTS XLL
Format/Info : Digital Theater Systems
Commercial name : DTS-HD Master Audio
Codec ID : A_DTS
Duration : 2 h 12 min
Bit rate mode : Variable
Bit rate : 4 763 kb/s
Channel(s) : 8 channels
Channel layout : C L R LFE Lb Rb Lss Rss
Sampling rate : 48.0 kHz
Frame rate : 93.750 FPS (512 SPF)
Bit depth : 24 bits
Compression mode : Lossless
Stream size : 4.40 GiB (10%)
Title : DTS-HD MA 7.1
Language : English
Default : No
Forced : No
Original source medium : Blu-ray

Audio #3
ID : 4
ID in the original source medium : 4352 (0x14KTT
Format : AC-3
Format/Info : Audio Coding 3
Commercial name : Dolby Digital
Codec ID : A_AC3
Duration : 2 h 12 min
Bit rate mode : Constant
Bit rate : 640 kb/s
Channel(s) : 6 channels
Channel layout : L R C LFE Ls Rs
Sampling rate : 48.0 kHz
Frame rate : 31.250 FPS (1536 SPF)
Compression mode : Lossy
Stream size : 606 MiB (1%)
Title : DD 5.1
Language : English
Service kind : Complete Main
Default : No
Forced : No
Original source medium : Blu-ray

Audio #4
ID : 5
ID in the original source medium : 4353 (0x1101)
Format : AC-3
Format/Info : Audio Coding 3
Commercial name : Dolby Digital
Codec ID : A_AC3
Duration : 2 h 12 min
Bit rate mode : Constant
Bit rate : 320 kb/s
Channel(s) : 2 channels
Channel layout : L R
Sampling rate : 48.0 kHz
Frame rate : 31.250 FPS (1536 SPF)
Compression mode : Lossy
Stream size : 303 MiB (1%)
Title : DD 2.0
Language : English
Service kind : Complete Main
Default : No
Forced : No
Original source medium : Blu-ray

Audio #5
ID : 6
ID in the original source medium : 4353 (0x1101)
Format : AC-3
Format/Info : Audio Coding 3
Commercial name : Dolby Digital
Codec ID : A_AC3
Duration : 2 h 12 min
Bit rate mode : Constant
Bit rate : 320 kb/s
Channel(s) : 2 channels
Channel layout : L R
Sampling rate : 48.0 kHz
Frame rate : 31.250 FPS (1536 SPF)
Compression mode : Lossy
Stream size : 303 MiB (1%)
Title : DD 2.0
Language : English
Service kind : Complete Main
Default : No
Forced : No
Original source medium : Blu-ray

Audio #6
ID : 7
ID in the original source medium : 4356 (0x1104)
Format : AC-3
Format/Info : Audio Coding 3
Commercial name : Dolby Digital
Codec ID : A_AC3
Duration : 2 h 12 min
Bit rate mode : Constant
Bit rate : 192 kb/s
Channel(s) : 2 channels
Channel layout : L R
Sampling rate : 48.0 kHz
Frame rate : 31.250 FPS (1536 SPF)
Compression mode : Lossy
Stream size : 182 MiB (0%)
Title : DD 2.0
Language : English
Service kind : Complete Main
Default : No
Forced : No
Original source medium : Blu-ray

Audio #7
ID : 8
Format : E-AC-3
Format/Info : Enhanced AC-3
Commercial name : Dolby Digital Plus
Format profile : Blu-ray Disc
Codec ID : A_EAC3
Duration : 2 h 12 min
Bit rate mode : Constant
Bit rate : 1 024 kb/s
Channel(s) : 8 channels
Channel layout : L R C LFE Ls Rs Lb Rb
Sampling rate : 48.0 kHz
Frame rate : 31.250 FPS (1536 SPF)
Compression mode : Lossy
Stream size : 969 MiB (2%)
Title : DDP 7.1
Language : French
Service kind : Complete Main
Default : No
Forced : No

Audio #8
ID : 9
ID in the original source medium : 4354 (0x1102)
Format : AC-3
Format/Info : Audio Coding 3
Commercial name : Dolby Digital
Codec ID : A_AC3
Duration : 2 h 12 min
Bit rate mode : Constant
Bit rate : 576 kb/s
Channel(s) : 6 channels
Channel layout : L R C LFE Ls Rs
Sampling rate : 48.0 kHz
Frame rate : 31.250 FPS (1536 SPF)
Compression mode : Lossy
Stream size : 545 MiB (1%)
Title : DD 5.1
Language : French
Service kind : Complete Main
Default : No
Forced : No
Original source medium : Blu-ray

Audio #9
ID : 10
ID in the original source medium : 4355 (0x1103)
Format : DTS
Format/Info : Digital Theater Systems
Codec ID : A_DTS
Duration : 2 h 12 min
Bit rate mode : Constant
Bit rate : 1 509 kb/s
Channel(s) : 6 channels
Channel layout : C L R Ls Rs LFE
Sampling rate : 48.0 kHz
Frame rate : 93.750 FPS (512 SPF)
Bit depth : 24 bits
Compression mode : Lossy
Stream size : 1.39 GiB (3%)
Title : DD 5.1
Language : Spanish
Default : No
Forced : No
Original source medium : Blu-ray

Audio #10
ID : 11
Format : E-AC-3
Format/Info : Enhanced AC-3
Commercial name : Dolby Digital Plus
Format profile : Blu-ray Disc
Codec ID : A_EAC3
Duration : 2 h 12 min
Bit rate mode : Constant
Bit rate : 1 024 kb/s
Channel(s) : 8 channels
Channel layout : L R C LFE Ls Rs Lb Rb
Sampling rate : 48.0 kHz
Frame rate : 31.250 FPS (1536 SPF)
Compression mode : Lossy
Stream size : 969 MiB (2%)
Title : DDP 7.1
Language : German
Service kind : Complete Main
Default : No
Forced : No

Audio #11
ID : 12
ID in the original source medium : 4356 (0x1104)
Format : AC-3
Format/Info : Audio Coding 3
Commercial name : Dolby Digital
Codec ID : A_AC3
Duration : 2 h 12 min
Bit rate mode : Constant
Bit rate : 576 kb/s
Channel(s) : 6 channels
Channel layout : L R C LFE Ls Rs
Sampling rate : 48.0 kHz
Frame rate : 31.250 FPS (1536 SPF)
Compression mode : Lossy
Stream size : 545 MiB (1%)
Title : DD 5.1
Language : German
Service kind : Complete Main
Default : No
Forced : No
Original source medium : Blu-ray

Audio #12
ID : 13
Format : E-AC-3
Format/Info : Enhanced AC-3
Commercial name : Dolby Digital Plus
Format profile : Blu-ray Disc
Codec ID : A_EAC3
Duration : 2 h 12 min
Bit rate mode : Constant
Bit rate : 1 024 kb/s
Channel(s) : 8 channels
Channel layout : L R C LFE Ls Rs Lb Rb
Sampling rate : 48.0 kHz
Frame rate : 31.250 FPS (1536 SPF)
Compression mode : Lossy
Stream size : 969 MiB (2%)
Title : DDP 7.1
Language : Italian
Service kind : Complete Main
Default : No
Forced : No

Audio #13
ID : 14
ID in the original source medium : 4357 (0x1105)
Format : AC-3
Format/Info : Audio Coding 3
Commercial name : Dolby Digital
Codec ID : A_AC3
Duration : 2 h 12 min
Bit rate mode : Constant
Bit rate : 576 kb/s
Channel(s) : 6 channels
Channel layout : L R C LFE Ls Rs
Sampling rate : 48.0 kHz
Frame rate : 31.250 FPS (1536 SPF)
Compression mode : Lossy
Stream size : 545 MiB (1%)
Title : DD 5.1
Language : Italian
Service kind : Complete Main
Default : No
Forced : No
Original source medium : Blu-ray

Audio #14
ID : 15
Format : E-AC-3
Format/Info : Enhanced AC-3
Commercial name : Dolby Digital Plus
Format profile : Blu-ray Disc
Codec ID : A_EAC3
Duration : 2 h 12 min
Bit rate mode : Constant
Bit rate : 1 024 kb/s
Channel(s) : 8 channels
Channel layout : L R C LFE Ls Rs Lb Rb
Sampling rate : 48.0 kHz
Frame rate : 31.250 FPS (1536 SPF)
Compression mode : Lossy
Stream size : 969 MiB (2%)
Title : DDP 7.1
Language : Japanese
Service kind : Complete Main
Default : No
Forced : No

Audio #15
ID : 16
ID in the original source medium : 4358 (0x1106)
Format : AC-3
Format/Info : Audio Coding 3
Commercial name : Dolby Digital
Codec ID : A_AC3
Duration : 2 h 12 min
Bit rate mode : Constant
Bit rate : 576 kb/s
Channel(s) : 6 channels
Channel layout : L R C LFE Ls Rs
Sampling rate : 48.0 kHz
Frame rate : 31.250 FPS (1536 SPF)
Compression mode : Lossy
Stream size : 545 MiB (1%)
Title : DD 5.1
Language : Japanese
Service kind : Complete Main
Default : No
Forced : No
Original source medium : Blu-ray

Text #1
ID : 17
Format : UTF-8
Codec ID : S_TEXT/UTF8
Codec ID/Info : UTF-8 Plain Text
Duration : 1 h 55 min
Bit rate : 5 b/s
Count of elements : 188
Stream size : 4.98 KiB (0%)
Title : FORCED
Language : English
Default : No
Forced : Yes

Text #2
ID : 18
Format : UTF-8
Codec ID : S_TEXT/UTF8
Codec ID/Info : UTF-8 Plain Text
Duration : 2 h 10 min
Bit rate : 39 b/s
Count of elements : 1303
Stream size : 37.6 KiB (0%)
Language : English
Default : Yes
Forced : No

Text #3
ID : 19
Format : UTF-8
Codec ID : S_TEXT/UTF8
Codec ID/Info : UTF-8 Plain Text
Duration : 2 h 11 min
Bit rate : 52 b/s
Count of elements : 1853
Stream size : 50.0 KiB (0%)
Title : SDH
Language : English
Default : No
Forced : No

Text #4
ID : 20
Format : UTF-8
Codec ID : S_TEXT/UTF8
Codec ID/Info : UTF-8 Plain Text
Duration : 2 h 12 min
Bit rate : 95 b/s
Count of elements : 2017
Stream size : 92.4 KiB (0%)
Title : English Commentary
Language : English
Default : No
Forced : No

Text #5
ID : 21
ID in the original source medium : 4768 (0x12A0)
Format : PGS
Muxing mode : zlib
Codec ID : S_HDMV/PGS
Codec ID/Info : Picture based subtitle format used on BDs/HD-DVDs
Duration : 2 h 11 min
Bit rate : 35.8 kb/s
Count of elements : 3706
Stream size : 33.5 MiB (0%)
Language : English
Default : No
Forced : No
Original source medium : Blu-ray

Text #6
ID : 22
ID in the original source medium : 4769 (0x12A1)
Format : PGS
Muxing mode : zlib
Codec ID : S_HDMV/PGS
Codec ID/Info : Picture based subtitle format used on BDs/HD-DVDs
Duration : 2 h 11 min
Bit rate : 19.3 kb/s
Count of elements : 2164
Stream size : 18.1 MiB (0%)
Language : French
Default : No
Forced : No
Original source medium : Blu-ray

Text #7
ID : 23
ID in the original source medium : 4770 (0x12A2)
Format : PGS
Muxing mode : zlib
Codec ID : S_HDMV/PGS
Codec ID/Info : Picture based subtitle format used on BDs/HD-DVDs
Duration : 2 h 11 min
Bit rate : 21.3 kb/s
Count of elements : 2244
Stream size : 20.1 MiB (0%)
Language : Spanish
Default : No
Forced : No
Original source medium : Blu-ray

Text #8
ID : 24
ID in the original source medium : 4771 (0x12A3)
Format : PGS
Muxing mode : zlib
Codec ID : S_HDMV/PGS
Codec ID/Info : Picture based subtitle format used on BDs/HD-DVDs
Duration : 2 h 11 min
Bit rate : 21.7 kb/s
Count of elements : 2160
Stream size : 20.4 MiB (0%)
Language : German
Default : No
Forced : No
Original source medium : Blu-ray

Text #9
ID : 25
ID in the original source medium : 4772 (0x12A4)
Format : PGS
Muxing mode : zlib
Codec ID : S_HDMV/PGS
Codec ID/Info : Picture based subtitle format used on BDs/HD-DVDs
Duration : 2 h 11 min
Bit rate : 23.2 kb/s
Count of elements : 2256
Stream size : 21.8 MiB (0%)
Language : Italian
Default : No
Forced : No
Original source medium : Blu-ray

Text #10
ID : 26
ID in the original source medium : 4773 (0x12A5)
Format : PGS
Muxing mode : zlib
Codec ID : S_HDMV/PGS
Codec ID/Info : Picture based subtitle format used on BDs/HD-DVDs
Duration : 2 h 11 min
Bit rate : 17.5 kb/s
Count of elements : 2122
Stream size : 16.4 MiB (0%)
Language : Japanese
Default : No
Forced : No
Original source medium : Blu-ray

Text #11
ID : 27
ID in the original source medium : 4774 (0x12A6)
Format : PGS
Muxing mode : zlib
Codec ID : S_HDMV/PGS
Codec ID/Info : Picture based subtitle format used on BDs/HD-DVDs
Duration : 2 h 11 min
Bit rate : 21.0 kb/s
Count of elements : 1882
Stream size : 19.7 MiB (0%)
Language : Dutch
Default : No
Forced : No
Original source medium : Blu-ray

Text #12
ID : 28
ID in the original source medium : 4775 (0x12A7)
Format : PGS
Muxing mode : zlib
Codec ID : S_HDMV/PGS
Codec ID/Info : Picture based subtitle format used on BDs/HD-DVDs
Duration : 2 h 11 min
Bit rate : 19.4 kb/s
Count of elements : 1596
Stream size : 18.3 MiB (0%)
Language : Danish
Default : No
Forced : No
Original source medium : Blu-ray

Text #13
ID : 29
ID in the original source medium : 4776 (0x12A8)
Format : PGS
Muxing mode : zlib
Codec ID : S_HDMV/PGS
Codec ID/Info : Picture based subtitle format used on BDs/HD-DVDs
Duration : 2 h 11 min
Bit rate : 23.1 kb/s
Count of elements : 2252
Stream size : 21.7 MiB (0%)
Language : Finnish
Default : No
Forced : No
Original source medium : Blu-ray

Text #14
ID : 30
ID in the original source medium : 4777 (0x12A9)
Format : PGS
Muxing mode : zlib
Codec ID : S_HDMV/PGS
Codec ID/Info : Picture based subtitle format used on BDs/HD-DVDs
Duration : 2 h 11 min
Bit rate : 20.6 kb/s
Count of elements : 2266
Stream size : 19.4 MiB (0%)
Language : Norwegian
Default : No
Forced : No
Original source medium : Blu-ray

Text #15
ID : 31
ID in the original source medium : 4778 (0x12AA)
Format : PGS
Muxing mode : zlib
Codec ID : S_HDMV/PGS
Codec ID/Info : Picture based subtitle format used on BDs/HD-DVDs
Duration : 2 h 11 min
Bit rate : 18.5 kb/s
Count of elements : 1708
Stream size : 17.3 MiB (0%)
Language : Swedish
Default : No
Forced : No
Original source medium : Blu-ray

Text #16
ID : 32
ID in the original source medium : 4779 (0x12AB)
Format : PGS
Muxing mode : zlib
Codec ID : S_HDMV/PGS
Codec ID/Info : Picture based subtitle format used on BDs/HD-DVDs
Duration : 1 h 55 min
Bit rate : 3 776 b/s
Count of elements : 376
Stream size : 3.13 MiB (0%)
Title : FORCED
Language : English
Default : No
Forced : No
Original source medium : Blu-ray

Text #17
ID : 33
ID in the original source medium : 4780 (0x12AC)
Format : PGS
Muxing mode : zlib
Codec ID : S_HDMV/PGS
Codec ID/Info : Picture based subtitle format used on BDs/HD-DVDs
Duration : 2 h 11 min
Bit rate : 3 232 b/s
Count of elements : 390
Stream size : 3.04 MiB (0%)
Title : FORCED
Language : French
Default : No
Forced : No
Original source medium : Blu-ray

Text #18
ID : 34
ID in the original source medium : 4781 (0x12AD)
Format : PGS
Muxing mode : zlib
Codec ID : S_HDMV/PGS
Codec ID/Info : Picture based subtitle format used on BDs/HD-DVDs
Duration : 2 h 11 min
Bit rate : 3 508 b/s
Count of elements : 380
Stream size : 3.30 MiB (0%)
Title : FORCED
Language : Spanish
Default : No
Forced : No
Original source medium : Blu-ray

Text #19
ID : 35
ID in the original source medium : 4782 (0x12AE)
Format : PGS
Muxing mode : zlib
Codec ID : S_HDMV/PGS
Codec ID/Info : Picture based subtitle format used on BDs/HD-DVDs
Duration : 2 h 11 min
Bit rate : 3 713 b/s
Count of elements : 374
Stream size : 3.49 MiB (0%)
Title : FORCED
Language : German
Default : No
Forced : No
Original source medium : Blu-ray

Text #20
ID : 36
ID in the original source medium : 4783 (0x12AF)
Format : PGS
Muxing mode : zlib
Codec ID : S_HDMV/PGS
Codec ID/Info : Picture based subtitle format used on BDs/HD-DVDs
Duration : 2 h 11 min
Bit rate : 3 487 b/s
Count of elements : 384
Stream size : 3.28 MiB (0%)
Title : FORCED
Language : Italian
Default : No
Forced : No
Original source medium : Blu-ray

Text #21
ID : 37
ID in the original source medium : 4784 (0x12B0)
Format : PGS
Muxing mode : zlib
Codec ID : S_HDMV/PGS
Codec ID/Info : Picture based subtitle format used on BDs/HD-DVDs
Duration : 2 h 9 min
Bit rate : 3 059 b/s
Count of elements : 350
Stream size : 2.83 MiB (0%)
Title : FORCED
Language : Japanese
Default : No
Forced : No
Original source medium : Blu-ray

Menu
00:00:00.000 : en:Chapter 01
00:03:52.857 : en:Chapter 02
00:09:28.985 : en:Chapter 03
00:16:17.184 : en:Chapter 04
00:22:47.491 : en:Chapter 05
00:31:59.667 : en:Chapter 06
00:42:49.483 : en:Chapter 07
00:52:21.054 : en:Chapter 08
00:56:51.324 : en:Chapter 09
01:00:35.006 : en:Chapter 10
01:08:46.122 : en:Chapter 11
01:15:55.050 : en:Chapter 12
01:19:51.286 : en:Chapter 13
01:29:49.675 : en:Chapter 14
01:36:45.800 : en:Chapter 15
01:47:00.622 : en:Chapter 16
01:55:25.293 : en:Chapter 17
02:00:07.241 : en:Chapter 18
02:01:46.132 : en:Chapter 19
02:04:08.858 : en:Chapter 20
02:10:39.248 : en:Chapter 21



本帖子中包含更多资源

您需要 登录 才可以下载或查看,没有帐号?立即注册

x
回复

使用道具 举报

该用户从未签到

0

主题

652

帖子

145

积分

初级会员

Rank: 2

积分
145
发表于 2021-11-12 18:03:13 | 显示全部楼层
入秘密的十环帮组织,被迫面对自己隐秘的过去经历。
回复

使用道具 举报

该用户从未签到

0

主题

5

帖子

2

积分

新手上路

Rank: 1

积分
2
发表于 2021-11-12 18:15:29 | 显示全部楼层
从抖音上来的
回复

使用道具 举报

该用户从未签到

0

主题

3

帖子

5

积分

新手上路

Rank: 1

积分
5
发表于 2021-11-12 19:01:16 | 显示全部楼层
早就想看了,让我看看!
回复

使用道具 举报

该用户从未签到

0

主题

5

帖子

1

积分

新手上路

Rank: 1

积分
1
发表于 2021-11-12 20:14:34 | 显示全部楼层
可以,正想看呢。
回复

使用道具 举报

  • TA的每日心情
    开心
    2022-4-1 20:33
  • 签到天数: 1 天

    [LV.1]初来乍到

    0

    主题

    780

    帖子

    111

    积分

    初级会员

    Rank: 2

    积分
    111
    发表于 2021-11-12 20:28:33 | 显示全部楼层
    早就想看了,让我看看!谢谢楼主分享。
    回复

    使用道具 举报

    该用户从未签到

    0

    主题

    11

    帖子

    3

    积分

    新手上路

    Rank: 1

    积分
    3
    发表于 2021-11-12 20:52:26 | 显示全部楼层
    好好!!!!!!!!!!!!!!!!!!!!!
    回复

    使用道具 举报

    该用户从未签到

    0

    主题

    14

    帖子

    10

    积分

    新手上路

    Rank: 1

    积分
    10
    发表于 2021-11-12 22:31:47 | 显示全部楼层
    一直在找的资源,终于找到了
    回复

    使用道具 举报

    该用户从未签到

    0

    主题

    2

    帖子

    1

    积分

    新手上路

    Rank: 1

    积分
    1
    发表于 2021-11-14 18:42:05 | 显示全部楼层
    ddddddfffffffffffffffffffff
    回复

    使用道具 举报

    该用户从未签到

    0

    主题

    2

    帖子

    1

    积分

    新手上路

    Rank: 1

    积分
    1
    发表于 2021-11-14 18:43:01 | 显示全部楼层
    sdddddddddddddsfcccccccccccccccccccccc
    回复

    使用道具 举报

    您需要登录后才可以回帖 登录 | 立即注册

    本版积分规则

    为防丢失网站网址,敬请关注官方微信公众号,再也不会迷路!
    4K天堂会一路坚持,共建高清电影爱好者的精神家园。

    Archiver|手机版|小黑屋|4K电影下载

    GMT+8, 2022-11-28 23:27 , Processed in 0.156250 second(s), 26 queries , Gzip On.

    Powered by Discuz! X3.4

    Copyright © 2001-2020, Tencent Cloud.

    快速回复 返回顶部 返回列表