4K天堂

 找回密码
 立即注册
查看: 869|回复: 29

[欧美] [黑寡妇]Black.Widow.2021.1080p.BluRay.x264.TrueHD.7.1.Atmos-FGT 19.56GB

[复制链接]

4189

主题

4228

帖子

1万

积分

版主

Rank: 7Rank: 7Rank: 7

积分
17536
发表于 2021-9-10 08:44:05 | 显示全部楼层 |阅读模式



◎译  名 黑寡妇/The Black Widow
◎片  名 Black Widow
◎年  代 2021
◎产  地 美国
◎类  别 动作 / 科幻 / 冒险
◎语  言 英语,俄语,挪威语,匈牙利语,马其顿语,芬兰语
◎上映日期 2021(中国大陆) / 2021-07-07(中国香港) / 2021-07-09(美国/美国网络)
◎豆瓣评分 6.3/10 from 115449 users
◎豆瓣链接 https://movie.douban.com/subject/25828589/
◎片  长 133分钟
◎导  演 凯特·绍特兰 Cate Shortland
◎编  剧 雅克·舍费尔 Jac Schaeffer / 内德·本森 Ned Benson / 埃里克·皮尔森 Eric Pearson / 斯坦·李 Stan Lee / 唐·赫克 Don Heck / 唐·里科 Don Rico
◎主  演 斯嘉丽·约翰逊 Scarlett Johansson
      弗洛伦丝·皮尤 Florence Pugh
      蕾切尔·薇兹 Rachel Weisz
      大卫·哈伯 David Harbour
      艾尔·安德森 Ever Anderson
      维奥莱特·麦格劳 Violet McGraw
      欧嘉·柯瑞兰寇 Olga Kurylenko
      O·T·法格本 O.T. Fagbenle
      威廉·赫特 William Hurt
      雷·温斯顿 Ray Winstone
      赖恩·基拉·阿姆斯特朗 Ryan Kiera Armstrong
      米歇尔·李 Michelle Lee
      拉娜·布隆代尔 Nanna Blondell
      Claudia Heinz Claudia Heinz
      露西·詹·穆雷 Lucy Jayne Murray
      乔治亚·柯蒂斯 Georgia Curtis
      约恩·巴特勒 Ione Butler
      库尔特·岳 Kurt Yue
      奥利维尔·里希特斯 Olivier Richters
      安得烈·拜伦 Andrew Byron
      卡利·内勒 Cali Nelle
      罗伯特·普拉尔戈 Robert Pralgo
      贾辛特·布兰肯希普 Jacinte Blankenship
      乔希·亨利 Josh Henry
      阿里娅·布鲁克斯 Aria Brooks
      泰·赫尔利 Ty Hurley
      马里安·洛伦西克 Marian Lorencik
      茱莉亚·路易斯-德瑞弗斯 Julia Louis-Dreyfus
      亚当·普里克特 Adam Prickett
      史蒂芬·萨姆森 Stephen Samson
      乔基姆·斯卡利 Joakim Skarli
      利亚尼·塞缪尔 Liani Samuel
      西蒙娜·齐夫科夫斯卡 Simona Zivkovska
      刘易斯·扬 Lewis Young

◎标  签 漫威 | 斯嘉丽·约翰逊 | 黑寡妇 | 超级英雄 | 美国 | 科幻 | 动作 | 2021

◎简  介  

  一部充满动作戏的间谍惊悚片。娜塔莎·罗曼诺夫/黑寡妇遭遇与她的过去相关的一场危险阴谋,将直面自己那些更为黑暗的经历。一股不惜一切要击倒她的力量袭来,娜塔莎必须面对自己在成为复仇者的很久之前那作为间谍的过往,和曾远离的破碎关系。

◎获奖情况

  第7届豆瓣电影年度榜单 ?(2020)
  最值得期待的外语电影
  
  第6届豆瓣电影年度榜单 ?(2019)
  最值得期待的外语电影
Video
ID : 1
Format : AVC
Format/Info : Advanced Video Codec
Format profile : [email protected]
Format settings : CABAC / 5 Ref Frames
Format settings, CABAC : Yes
Format settings, Reference frames : 5 frames
Codec ID : V_MPEG4/ISO/AVC
Duration : 2 h 13 min
Bit rate : 15.9 Mb/s
Width : 1 920 pixels
Height : 804 pixels
Display aspect ratio : 2.40:1
Frame rate mode : Constant
Frame rate : 23.976 (24000/4KTT189150) FPS
Color space : YUV
Chroma subsampling : 4:2:0
Bit depth : 8 bits
Scan type : Progressive
Bits/(Pixel*Frame) : 0.430
Stream size : 14.9 GiB (76%)
Writing library : x264 core 164 r3065 ae03d92
Encoding settings : cabac=1 / ref=5 / deblock=1:-3:-3 / analyse=0x3:0x133 / me=umh / subme=9 / psy=1 / psy_rd=1.00:0.00 / mixed_ref=1 / me_range=48 / chroma_me=1 / trellis=2 / 8x8dct=1 / cqm=0 / deadzone=21,11 / fast_pskip=0 / chroma_qp_offset=-2 / threads=25 / lookahead_threads=2 / sliced_threads=0 / nr=0 / decimate=0 / interlaced=0 / bluray_compat=0 / constrained_intra=0 / bframes=3 / b_pyramid=2 / b_adapt=2 / b_bias=0 / direct=3 / weightb=1 / open_gop=0 / weightp=2 / keyint=250 / keyint_min=23 / scenecut=40 / intra_refresh=0 / rc=crf / mbtree=0 / crf=15.5 / qcomp=0.60 / qpmin=0 / qpmax=69 / qpstep=4 / ip_ratio=1.40 / pb_ratio=1.30 / aq=3:0.80
Default : Yes
Forced : No
Color range : Limited
Matrix coefficients : BT.709

Audio #1
ID : 2
ID in the original source medium : 4352 (0x14KTT
Format : MLP FBA 16-ch
Format/Info : Meridian Lossless Packing FBA with 16-channel presentation
Commercial name : Dolby TrueHD with Dolby Atmos
Codec ID : A_TRUEHD
Duration : 2 h 13 min
Bit rate mode : Variable
Bit rate : 4 284 kb/s
Maximum bit rate : 7 737 kb/s
Channel(s) : 8 channels
Channel layout : L R C LFE Ls Rs Lb Rb
Sampling rate : 48.0 kHz
Frame rate : 1 200.000 FPS (40 SPF)
Bit depth : 24 bits
Compression mode : Lossless
Stream size : 4.00 GiB (20%)
Title : TrueHD 7.1 Atmos
Language : English
Default : Yes
Forced : No
Original source medium : Blu-ray
Number of dynamic objects : 13
Bed channel count : 1 channel
Bed channel configuration : LFE

Audio #2
ID : 3
ID in the original source medium : 4352 (0x14KTT
Format : AC-3
Format/Info : Audio Coding 3
Commercial name : Dolby Digital
Codec ID : A_AC3
Duration : 2 h 13 min
Bit rate mode : Constant
Bit rate : 640 kb/s
Channel(s) : 6 channels
Channel layout : L R C LFE Ls Rs
Sampling rate : 48.0 kHz
Frame rate : 31.250 FPS (1536 SPF)
Compression mode : Lossy
Stream size : 612 MiB (3%)
Title : DD 5.1
Language : English
Service kind : Complete Main
Default : No
Forced : No
Original source medium : Blu-ray

Text #1
ID : 4
Format : UTF-8
Codec ID : S_TEXT/UTF8
Codec ID/Info : UTF-8 Plain Text
Duration : 2 h 12 min
Bit rate : 40 b/s
Count of elements : 1339
Stream size : 39.7 KiB (0%)
Title : SRT
Language : English
Default : Yes
Forced : No

Text #2
ID : 5
ID in the original source medium : 4608 (0x1200)
Format : PGS
Muxing mode : zlib
Codec ID : S_HDMV/PGS
Codec ID/Info : Picture based subtitle format used on BDs/HD-DVDs
Duration : 2 h 13 min
Bit rate : 32.6 kb/s
Count of elements : 3294
Stream size : 31.1 MiB (0%)
Language : English
Default : No
Forced : No
Original source medium : Blu-ray

Text #3
ID : 6
ID in the original source medium : 4609 (0x1201)
Format : PGS
Muxing mode : zlib
Codec ID : S_HDMV/PGS
Codec ID/Info : Picture based subtitle format used on BDs/HD-DVDs
Duration : 2 h 12 min
Bit rate : 26.9 kb/s
Count of elements : 2638
Stream size : 25.5 MiB (0%)
Language : French
Default : No
Forced : No
Original source medium : Blu-ray

Text #4
ID : 7
ID in the original source medium : 4610 (0x1202)
Format : PGS
Muxing mode : zlib
Codec ID : S_HDMV/PGS
Codec ID/Info : Picture based subtitle format used on BDs/HD-DVDs
Duration : 2 h 12 min
Bit rate : 25.8 kb/s
Count of elements : 2604
Stream size : 24.4 MiB (0%)
Language : Spanish
Default : No
Forced : No
Original source medium : Blu-ray

Menu
00:00:00.000 : Chapter 01
00:04:55.170 : Chapter 02
00:13:10.081 : Chapter 03
00:16:24.567 : Chapter 04
00:18:41.871 : Chapter 05
00:21:41.634 : Chapter 06
00:25:40.789 : Chapter 07
00:30:06.346 : Chapter 08
00:39:05.468 : Chapter 09
00:44:46.350 : Chapter 10
00:53:25.994 : Chapter 11
01:01:38.153 : Chapter 12
01:07:46.271 : Chapter 13
01:11:40.671 : Chapter 14
01:17:48.789 : Chapter 15
01:27:19.234 : Chapter 16
01:33:33.441 : Chapter 17
01:37:37.477 : Chapter 18
01:41:18.656 : Chapter 19
01:45:37.873 : Chapter 20
01:51:41.653 : Chapter 21
01:57:09.105 : Chapter 22
02:01:59.687 : Chapter 23
02:04:25.458 : Chapter 24



本帖子中包含更多资源

您需要 登录 才可以下载或查看,没有帐号?立即注册

x
回复

使用道具 举报

0

主题

18

帖子

50

积分

初级会员

Rank: 2

积分
50
发表于 2021-9-14 13:31:06 | 显示全部楼层
感谢楼主分享,等很久了
回复

使用道具 举报

0

主题

50

帖子

6

积分

新手上路

Rank: 1

积分
6
发表于 2021-9-16 18:25:27 | 显示全部楼层

谢谢楼主无私分享!
回复

使用道具 举报

0

主题

200

帖子

70

积分

初级会员

Rank: 2

积分
70
发表于 2021-9-20 11:34:14 | 显示全部楼层
Thanks for sharing
回复

使用道具 举报

0

主题

7

帖子

2

积分

新手上路

Rank: 1

积分
2
发表于 2021-9-20 23:13:04 | 显示全部楼层
感谢分享,谢谢
回复

使用道具 举报

0

主题

36

帖子

61

积分

初级会员

Rank: 2

积分
61
发表于 2021-9-22 16:08:28 | 显示全部楼层
谢谢分享。。。。。。。。

回复

使用道具 举报

0

主题

517

帖子

55

积分

初级会员

Rank: 2

积分
55
发表于 2021-9-22 16:10:31 | 显示全部楼层
先谢楼主分享
回复

使用道具 举报

0

主题

24

帖子

8

积分

新手上路

Rank: 1

积分
8
发表于 2021-9-22 16:13:56 | 显示全部楼层
6666666666666666
回复

使用道具 举报

0

主题

117

帖子

16

积分

新手上路

Rank: 1

积分
16
发表于 2021-9-26 16:25:57 | 显示全部楼层
谢谢分享谢谢分享
回复

使用道具 举报

0

主题

28

帖子

4

积分

新手上路

Rank: 1

积分
4
发表于 2021-9-29 21:11:04 | 显示全部楼层
刚注册,看看好不好看。
回复

使用道具 举报

您需要登录后才可以回帖 登录 | 立即注册

本版积分规则

为防丢失网站网址,敬请关注官方微信公众号,再也不会迷路!
4K天堂会一路坚持,共建高清电影爱好者的精神家园。

Archiver|手机版|小黑屋|4K电影下载

GMT+8, 2022-8-16 08:28 , Processed in 0.125000 second(s), 21 queries , Gzip On.

Powered by Discuz! X3.4

Copyright © 2001-2020, Tencent Cloud.

快速回复 返回顶部 返回列表