4K天堂

 找回密码
 立即注册
查看: 2316|回复: 75

[欧美] [黑寡妇]Black.Widow.2021.1080p.BluRay.x264.DTS-HD.MA.7.1-CHD 18.48GB

  [复制链接]

4189

主题

4228

帖子

1万

积分

版主

Rank: 7Rank: 7Rank: 7

积分
17536
发表于 2021-9-6 19:28:41 | 显示全部楼层 |阅读模式



◎译  名 黑寡妇/The Black Widow
◎片  名 Black Widow
◎年  代 2021
◎产  地 美国
◎类  别 动作 / 科幻 / 冒险
◎语  言 英语
◎上映日期 2021(中国大陆) / 2021-07-07(中国香港) / 2021-07-09(美国/美国网络)
◎豆瓣评分 6.3/10 from 114334 users
◎豆瓣链接 https://movie.douban.com/subject/25828589/
◎片  长 133分钟
◎导  演 凯特·绍特兰 Cate Shortland
◎编  剧 雅克·舍费尔 Jac Schaeffer / 内德·本森 Ned Benson / 埃里克·皮尔森 Eric Pearson / 斯坦·李 Stan Lee / 唐·赫克 Don Heck / 唐·里科 Don Rico
◎主  演 斯嘉丽·约翰逊 Scarlett Johansson
      弗洛伦丝·皮尤 Florence Pugh
      蕾切尔·薇兹 Rachel Weisz
      大卫·哈伯 David Harbour
      艾尔·安德森 Ever Anderson
      维奥莱特·麦格劳 Violet McGraw
      欧嘉·柯瑞兰寇 Olga Kurylenko
      O·T·法格本 O.T. Fagbenle
      威廉·赫特 William Hurt
      雷·温斯顿 Ray Winstone
      赖恩·基拉·阿姆斯特朗 Ryan Kiera Armstrong
      米歇尔·李 Michelle Lee
      拉娜·布隆代尔 Nanna Blondell
      Claudia Heinz Claudia Heinz
      露西·詹·穆雷 Lucy Jayne Murray
      乔治亚·柯蒂斯 Georgia Curtis
      约恩·巴特勒 Ione Butler
      库尔特·岳 Kurt Yue
      奥利维尔·里希特斯 Olivier Richters
      安得烈·拜伦 Andrew Byron
      卡利·内勒 Cali Nelle
      罗伯特·普拉尔戈 Robert Pralgo
      贾辛特·布兰肯希普 Jacinte Blankenship
      乔希·亨利 Josh Henry
      阿里娅·布鲁克斯 Aria Brooks
      泰·赫尔利 Ty Hurley
      马里安·洛伦西克 Marian Lorencik
      茱莉亚·路易斯-德瑞弗斯 Julia Louis-Dreyfus
      亚当·普里克特 Adam Prickett
      史蒂芬·萨姆森 Stephen Samson
      乔基姆·斯卡利 Joakim Skarli
      利亚尼·塞缪尔 Liani Samuel
      西蒙娜·齐夫科夫斯卡 Simona Zivkovska
      刘易斯·扬 Lewis Young

◎标  签 漫威 | 斯嘉丽·约翰逊 | 黑寡妇 | 超级英雄 | 美国 | 科幻 | 动作 | 2021

◎简  介  

  一部充满动作戏的间谍惊悚片。娜塔莎·罗曼诺夫/黑寡妇遭遇与她的过去相关的一场危险阴谋,将直面自己那些更为黑暗的经历。一股不惜一切要击倒她的力量袭来,娜塔莎必须面对自己在成为复仇者的很久之前那作为间谍的过往,和曾远离的破碎关系。

◎获奖情况

  第7届豆瓣电影年度榜单 ?(2020)
  最值得期待的外语电影
  
  第6届豆瓣电影年度榜单 ?(2019)
  最值得期待的外语电影
Video
ID : 1
Format : AVC
Format/Info : Advanced Video Codec
Format profile : [email protected]
Format settings : CABAC / 4 Ref Frames
Format settings, CABAC : Yes
Format settings, Reference frames : 4 frames
Codec ID : V_MPEG4/ISO/AVC
Duration : 2 h 13 min
Bit rate : 14.7 Mb/s
Width : 1 920 pixels
Height : 804 pixels
Display aspect ratio : 2.40:1
Frame rate mode : Constant
Frame rate : 23.976 (24000/4KTT189150) FPS
Color space : YUV
Chroma subsampling : 4:2:0
Bit depth : 8 bits
Scan type : Progressive
Bits/(Pixel*Frame) : 0.398
Stream size : 13.8 GiB (74%)
Writing library : x264 core 157 r2867+150 7e91e0e t_mod_Custom_2 [[email protected] X86_64]
Encoding settings : cabac=1 / ref=4 / deblock=1:-3:-3 / analyse=0x3:0x133 / me=umh / subme=11 / psy=1 / fade_compensate=0.00 / psy_rd=0.90:0.10 / mixed_ref=1 / me_range=64 / chroma_me=1 / trellis=2 / 8x8dct=1 / cqm=0 / deadzone=21,11 / fast_pskip=0 / chroma_qp_offset=-4 / threads=25 / lookahead_threads=4 / sliced_threads=0 / nr=0 / decimate=1 / interlaced=0 / bluray_compat=0 / constrained_intra=0 / fgo=0 / bframes=8 / b_pyramid=2 / b_adapt=2 / b_bias=0 / direct=3 / weightb=1 / open_gop=0 / weightp=2 / keyint=250 / keyint_min=23 / scenecut=40 / intra_refresh=0 / rc_lookahead=60 / rc=crf / mbtree=0 / crf=17.0000 / qcomp=0.70 / qpmin=0:0:0 / qpmax=69:69:69 / qpstep=4 / vbv_maxrate=35000 / vbv_bufsize=35000 / crf_max=0.0 / nal_hrd=none / filler=0 / ip_ratio=1.40 / pb_ratio=1.30 / aq=3:1.00 / aq-sensitivity=10.00 / aq-factor=1.00:1.00:1.00 / aq2=0 / aq3=0
Language : Chinese
Default : Yes
Forced : No

Audio
ID : 2
Format : DTS XLL
Format/Info : Digital Theater Systems
Commercial name : DTS-HD Master Audio
Codec ID : A_DTS
Duration : 2 h 13 min
Bit rate mode : Variable
Bit rate : 5 027 kb/s
Channel(s) : 8 channels
Channel layout : C L R LFE Lb Rb Lss Rss
Sampling rate : 48.0 kHz
Frame rate : 93.750 FPS (512 SPF)
Bit depth : 24 bits
Compression mode : Lossless
Stream size : 4.70 GiB (25%)
Language : English
Default : Yes
Forced : No

Text #1
ID : 3
Format : UTF-8
Codec ID : S_TEXT/UTF8
Codec ID/Info : UTF-8 Plain Text
Duration : 2 h 12 min
Bit rate : 40 b/s
Count of elements : 1339
Stream size : 39.7 KiB (0%)
Title : SRT
Language : English
Default : Yes
Forced : No

Text #2
ID : 4
Format : PGS
Muxing mode : zlib
Codec ID : S_HDMV/PGS
Codec ID/Info : Picture based subtitle format used on BDs/HD-DVDs
Duration : 2 h 13 min
Bit rate : 32.6 kb/s
Count of elements : 3294
Stream size : 31.1 MiB (0%)
Language : English
Default : No
Forced : No

Text #3
ID : 5
Format : PGS
Muxing mode : zlib
Codec ID : S_HDMV/PGS
Codec ID/Info : Picture based subtitle format used on BDs/HD-DVDs
Duration : 2 h 12 min
Bit rate : 26.9 kb/s
Count of elements : 2638
Stream size : 25.5 MiB (0%)
Language : French
Default : No
Forced : No

Text #4
ID : 6
Format : PGS
Muxing mode : zlib
Codec ID : S_HDMV/PGS
Codec ID/Info : Picture based subtitle format used on BDs/HD-DVDs
Duration : 2 h 12 min
Bit rate : 25.8 kb/s
Count of elements : 2604
Stream size : 24.4 MiB (0%)
Language : Spanish
Default : No
Forced : No

Text #5
ID : 7
Format : PGS
Muxing mode : zlib
Codec ID : S_HDMV/PGS
Codec ID/Info : Picture based subtitle format used on BDs/HD-DVDs
Duration : 1 h 49 min
Bit rate : 714 b/s
Count of elements : 74
Stream size : 573 KiB (0%)
Language : English
Default : No
Forced : No

Text #6
ID : 8
Format : PGS
Muxing mode : zlib
Codec ID : S_HDMV/PGS
Codec ID/Info : Picture based subtitle format used on BDs/HD-DVDs
Duration : 1 h 51 min
Bit rate : 1 052 b/s
Count of elements : 134
Stream size : 858 KiB (0%)
Language : French
Default : No
Forced : No

Text #7
ID : 9
Format : PGS
Muxing mode : zlib
Codec ID : S_HDMV/PGS
Codec ID/Info : Picture based subtitle format used on BDs/HD-DVDs
Duration : 2 h 0 min
Bit rate : 1 076 b/s
Count of elements : 112
Stream size : 951 KiB (0%)
Language : English
Default : No
Forced : No

Menu
00:00:00.000 : Chapter 1
00:04:55.295 : Chapter 2
00:13:10.206 : Chapter 3
00:16:24.692 : Chapter 4
00:18:41.995 : Chapter 5
00:21:41.758 : Chapter 6
00:25:40.914 : Chapter 7
00:30:06.471 : Chapter 8
00:39:05.593 : Chapter 9
00:44:46.475 : Chapter 10
00:53:26.119 : Chapter 11
01:01:38.278 : Chapter 12
01:07:46.395 : Chapter 13
01:11:40.796 : Chapter 14
01:17:48.914 : Chapter 15
01:27:19.359 : Chapter 16
01:33:33.566 : Chapter 17
01:37:37.601 : Chapter 18
01:41:18.781 : Chapter 19
01:45:37.998 : Chapter 20
01:51:41.778 : Chapter 21
01:57:09.230 : Chapter 22
02:01:59.812 : Chapter 23
02:04:25.583 : Chapter 24



本帖子中包含更多资源

您需要 登录 才可以下载或查看,没有帐号?立即注册

x
回复

使用道具 举报

0

主题

92

帖子

39

积分

新手上路

Rank: 1

积分
39
发表于 2021-9-6 23:05:34 | 显示全部楼层
谢谢分享!谢谢分享!
回复

使用道具 举报

0

主题

92

帖子

39

积分

新手上路

Rank: 1

积分
39
发表于 2021-9-6 23:06:09 | 显示全部楼层
谢谢分享!谢谢分享!谢谢分享!谢谢分享!
回复

使用道具 举报

0

主题

965

帖子

137

积分

初级会员

Rank: 2

积分
137
发表于 2021-9-6 23:11:29 | 显示全部楼层
黑寡妇]Black.Widow.2021.1080p.BluRay.x264.DTS-HD.MA.7.1-CHD 18.48GB
回复

使用道具 举报

0

主题

92

帖子

39

积分

新手上路

Rank: 1

积分
39
发表于 2021-9-6 23:13:18 | 显示全部楼层
谢谢分享!谢谢分享!谢谢分享!谢谢分享!
回复

使用道具 举报

0

主题

159

帖子

51

积分

初级会员

Rank: 2

积分
51
发表于 2021-9-6 23:18:03 | 显示全部楼层
感谢分享,感谢分享
回复

使用道具 举报

0

主题

566

帖子

193

积分

初级会员

Rank: 2

积分
193
发表于 2021-9-7 00:13:19 | 显示全部楼层
收藏了,谢谢楼主分享
回复

使用道具 举报

0

主题

245

帖子

84

积分

初级会员

Rank: 2

积分
84
发表于 2021-9-7 02:44:09 | 显示全部楼层

喜欢 感谢分享
回复

使用道具 举报

0

主题

488

帖子

61

积分

初级会员

Rank: 2

积分
61
发表于 2021-9-7 07:13:43 | 显示全部楼层
谢谢楼主的分享!!!!
回复

使用道具 举报

0

主题

83

帖子

46

积分

新手上路

Rank: 1

积分
46
发表于 2021-9-7 07:34:16 | 显示全部楼层
33333333333333
回复

使用道具 举报

您需要登录后才可以回帖 登录 | 立即注册

本版积分规则

为防丢失网站网址,敬请关注官方微信公众号,再也不会迷路!
4K天堂会一路坚持,共建高清电影爱好者的精神家园。

Archiver|手机版|小黑屋|4K电影下载

GMT+8, 2022-8-16 08:22 , Processed in 0.156250 second(s), 20 queries , Gzip On.

Powered by Discuz! X3.4

Copyright © 2001-2020, Tencent Cloud.

快速回复 返回顶部 返回列表