4K天堂

 找回密码
 立即注册
查看: 4498|回复: 233

[速度与激情9].2021.DC.2160p.BluRay.REMUX.HEVC.TrueHD.7.1.Atmos-NOGRP 52.87GB

  [复制链接]

872

主题

874

帖子

1万

积分

版主

Rank: 7Rank: 7Rank: 7

积分
10216
发表于 2021-9-4 14:55:18 | 显示全部楼层 |阅读模式



◎译  名 速度与激情9/F9狂野时速(港)/Fast & Furious 9/FF9/狂野时速9/玩命关头9(台)/速激9
◎片  名 F9: The Fast Saga
◎年  代 2021
◎产  地 美国,泰国,加拿大
◎类  别 动作 / 犯罪
◎语  言 英语
◎上映日期 2021-05-19(韩国) / 2021-05-21(中国大陆) / 2021-06-25(美国)
◎豆瓣评分 5.3/10 from 156053 users
◎豆瓣链接 https://movie.douban.com/subject/25728006/
◎片  长 142分钟(中国大陆)
◎导  演 林诣彬 Justin Lin
◎编  剧 丹·凯西 Daniel Casey / 盖瑞·斯科特·汤普森 Gary Scott Thompson / 克里斯·摩根 Chris Morgan
◎主  演 范·迪塞尔 Vin Diesel
       约翰·塞纳 John Cena
       米歇尔·罗德里格兹 Michelle Rodriguez
       乔丹娜·布鲁斯特 Jordana Brewster
       泰瑞斯·吉布森 Tyrese Gibson
       卢达·克里斯 Ludacris
       查理兹·塞隆 Charlize Theron
       海伦·米伦 Helen Mirren
       姜成镐 Sung Kang
       娜塔莉·伊曼纽尔 Nathalie Emmanuel
       迈克尔·鲁克 Michael Rooker
       卢卡斯·布莱克 Lucas Black
       杜俊纬 Jason Tobin
       卡迪·B Cardi B
       吉姆·帕拉克 Jim Parrack
       芬恩·科尔 Finn Cole
       安珀·西耶娜 Amber Sienna
       马丁·福特 Martyn Ford
       艾拉·沃克 Ella Walker
       泽井杏奈 Anna Sawai
       图厄·埃尔斯特德·拉斯姆森 Thue Ersted Rasmussen
       米拉吉·格尔比克 Miraj Grbic
       吉米·斯达 Jimmy Star
       莱克斯·艾尔 Lex Elle
       温尼·贝内特 Vinnie Bennett
       马克·克雷尼克 Mark Krenik
       杰森·斯坦森 Jason Statham
       库尔特·拉塞尔 Kurt Russell
       谢伊·惠格姆 Shea Whigham

◎标  签 动作 | 美国 | 飙车 | 犯罪 | 2021 | 跑车 | 赛车 | 科幻

◎简  介  

  “唐老大”多姆·托莱多(范·迪塞尔 饰)与莱蒂(米歇尔·罗德里格兹 饰)和他的儿子小布莱恩,过上了远离纷扰的平静生活。然而他们也知道,安宁之下总潜藏着危机。这一次,为了保护他所爱的人,唐老大不得不直面过去。他和伙伴们面临的是一场足以引起世界动荡的阴谋,以及一个前所未遇的一流杀手和高能车手。而这个名叫雅各布(约翰·塞纳 饰)的人,恰巧是多姆遗落在外的亲弟弟。

◎获奖情况

  第7届豆瓣电影年度榜单 ?(2020)
  最值得期待的外语电影(提名)
  
  第6届豆瓣电影年度榜单 ?(2019)
  最值得期待的外语电影(提名)
Video
ID                                       : 1
ID in the original source medium         : 4113 (0x1011)
Format                                   : HEVC
Format/Info                              : High Efficiency Video Coding
Format profile                           : Main [email protected]@High
HDR format                               : Dolby Vision, Version 1.0, dvhe.07.06, BL+EL+RPU, Blu-ray compatible / SMPTE ST 2094 App 4, Version 1, HDR10+ Profile B compatible
Codec ID                                 : V_MPEGH/ISO/HEVC
Duration                                 : 2 h 29 min
Bit rate                                 : 46.6 Mb/s
Width                                    : 3 840 pixels
Height                                   : 2 160 pixels
Display aspect ratio                     : 16:9
Frame rate mode                          : Constant
Frame rate                               : 23.976 (24000/4KTT189150) FPS
Color space                              : YUV
Chroma subsampling                       : 4:2:0 (Type 2)
Bit depth                                : 10 bits
Bits/(Pixel*Frame)                       : 0.235
Stream size                              : 48.8 GiB (92%)
Language                                 : English
Default                                  : No
Forced                                   : No
Color range                              : Limited
Color primaries                          : BT.2020
Transfer characteristics                 : PQ
Matrix coefficients                      : BT.2020 non-constant
Mastering display color primaries        : Display P3
Mastering display luminance              : min: 0.0001 cd/m2, max: 4KTTcd/m2
Maximum Content Light Level              : 4KTTcd/m2
Maximum Frame-Average Light Level        : 696 cd/m2
Original source medium                   : Blu-ray

Audio #1
ID                                       : 2
ID in the original source medium         : 4352 (0x14KTT
Format                                   : MLP FBA 16-ch
Format/Info                              : Meridian Lossless Packing FBA with 16-channel presentation
Commercial name                          : Dolby TrueHD with Dolby Atmos
Codec ID                                 : A_TRUEHD
Duration                                 : 2 h 29 min
Bit rate mode                            : Variable
Bit rate                                 : 3 095 kb/s
Maximum bit rate                         : 4 590 kb/s
Channel(s)                               : 8 channels
Channel layout                           : L R C LFE Ls Rs Lb Rb
Sampling rate                            : 48.0 kHz
Frame rate                               : 1 200.000 FPS (40 SPF)
Bit depth                                : 24 bits
Compression mode                         : Lossless
Stream size                              : 3.24 GiB (6%)
Title                                    : Surround 7.1
Language                                 : English
Default                                  : Yes
Forced                                   : No
Original source medium                   : Blu-ray
Number of dynamic objects                : 11
Bed channel count                        : 1 channel
Bed channel configuration                : LFE

Audio #2
ID                                       : 3
ID in the original source medium         : 4352 (0x14KTT
Format                                   : AC-3
Format/Info                              : Audio Coding 3
Commercial name                          : Dolby Digital
Codec ID                                 : A_AC3
Duration                                 : 2 h 29 min
Bit rate mode                            : Constant
Bit rate                                 : 448 kb/s
Channel(s)                               : 6 channels
Channel layout                           : L R C LFE Ls Rs
Sampling rate                            : 48.0 kHz
Frame rate                               : 31.250 FPS (1536 SPF)
Compression mode                         : Lossy
Stream size                              : 480 MiB (1%)
Title                                    : Surround 5.1
Language                                 : English
Service kind                             : Complete Main
Default                                  : No
Forced                                   : No
Original source medium                   : Blu-ray

Audio #3
ID                                       : 4
ID in the original source medium         : 4354 (0x1102)
Format                                   : AC-3
Format/Info                              : Audio Coding 3
Commercial name                          : Dolby Digital
Codec ID                                 : A_AC3
Duration                                 : 2 h 29 min
Bit rate mode                            : Constant
Bit rate                                 : 192 kb/s
Channel(s)                               : 2 channels
Channel layout                           : L R
Sampling rate                            : 48.0 kHz
Frame rate                               : 31.250 FPS (1536 SPF)
Compression mode                         : Lossy
Stream size                              : 206 MiB (0%)
Title                                    : Stereo
Language                                 : English
Service kind                             : Complete Main
Default                                  : No
Forced                                   : No
Original source medium                   : Blu-ray

Text #1
ID                                       : 5
ID in the original source medium         : 4768 (0x12A0)
Format                                   : PGS
Codec ID                                 : S_HDMV/PGS
Codec ID/Info                            : Picture based subtitle format used on BDs/HD-DVDs
Duration                                 : 2 h 23 min
Bit rate                                 : 36.8 kb/s
Count of elements                        : 4079
Stream size                              : 37.6 MiB (0%)
Language                                 : English
Default                                  : No
Forced                                   : No
Original source medium                   : Blu-ray

Text #2
ID                                       : 7
ID in the original source medium         : 4770 (0x12A2)
Format                                   : PGS
Codec ID                                 : S_HDMV/PGS
Codec ID/Info                            : Picture based subtitle format used on BDs/HD-DVDs
Duration                                 : 2 h 20 min
Bit rate                                 : 65.0 kb/s
Count of elements                        : 4556
Stream size                              : 65.5 MiB (0%)
Language                                 : English
Default                                  : No
Forced                                   : No
Original source medium                   : Blu-ray

Menu
00:00:00.000                             : en:Chapter 01
00:04:47.578                             : en:Chapter 02
00:12:27.705                             : en:Chapter 03
00:21:53.270                             : en:Chapter 04
00:26:43.268                             : en:Chapter 05
00:31:43.234                             : en:Chapter 06
00:35:36.425                             : en:Chapter 07
00:45:33.689                             : en:Chapter 08
00:53:42.761                             : en:Chapter 09
01:01:12.418                             : en:Chapter 10
01:05:24.295                             : en:Chapter 11
01:13:55.472                             : en:Chapter 12
01:25:26.121                             : en:Chapter 13
01:35:27.805                             : en:Chapter 14
01:41:34.129                             : en:Chapter 15
01:47:08.380                             : en:Chapter 16
01:57:42.138                             : en:Chapter 17
02:08:02.091                             : en:Chapter 18
02:12:25.479                             : en:Chapter 19
02:17:20.941                             : en:Chapter 20





本帖子中包含更多资源

您需要 登录 才可以下载或查看,没有帐号?立即注册

x
回复

使用道具 举报

0

主题

224

帖子

375

积分

初级会员

Rank: 2

积分
375
发表于 2021-9-5 22:32:34 | 显示全部楼层
Thanks 版主
回复

使用道具 举报

0

主题

137

帖子

96

积分

初级会员

Rank: 2

积分
96
发表于 2021-9-5 23:42:39 | 显示全部楼层
速度与激情9].2021.DC.2160p.BluRay.REMUX.HEVC.TrueHD.7.1.Atmos-NOGRP 52.87GB
回复

使用道具 举报

0

主题

204

帖子

62

积分

初级会员

Rank: 2

积分
62
发表于 2021-9-6 05:41:21 | 显示全部楼层
感谢楼主分享
回复

使用道具 举报

0

主题

471

帖子

58

积分

初级会员

Rank: 2

积分
58
发表于 2021-9-6 08:38:34 | 显示全部楼层
Thanks  版主
回复

使用道具 举报

0

主题

5

帖子

1154

积分

永久VIP会员

Rank: 50Rank: 50Rank: 50Rank: 50Rank: 50Rank: 50Rank: 50Rank: 50Rank: 50Rank: 50Rank: 50Rank: 50Rank: 50

积分
1154
发表于 2021-9-6 08:58:56 | 显示全部楼层
感谢楼主分享
回复

使用道具 举报

0

主题

333

帖子

252

积分

初级会员

Rank: 2

积分
252
发表于 2021-9-6 09:08:23 | 显示全部楼层
感謝分享,感謝分享
回复

使用道具 举报

0

主题

26

帖子

19

积分

新手上路

Rank: 1

积分
19
发表于 2021-9-6 10:44:30 | 显示全部楼层
经典回归,一定支持。谢谢
回复

使用道具 举报

0

主题

109

帖子

56

积分

初级会员

Rank: 2

积分
56
发表于 2021-9-6 10:49:52 | 显示全部楼层
感谢楼主分享
回复

使用道具 举报

0

主题

3

帖子

2

积分

新手上路

Rank: 1

积分
2
发表于 2021-9-6 15:49:08 | 显示全部楼层

Thanks  版主
回复

使用道具 举报

您需要登录后才可以回帖 登录 | 立即注册

本版积分规则

为防丢失网站网址,敬请关注官方微信公众号,再也不会迷路!
4K天堂会一路坚持,共建高清电影爱好者的精神家园。

Archiver|手机版|小黑屋|4K电影下载

GMT+8, 2022-8-16 08:16 , Processed in 0.171875 second(s), 21 queries , Gzip On.

Powered by Discuz! X3.4

Copyright © 2001-2020, Tencent Cloud.

快速回复 返回顶部 返回列表