4K天堂

 找回密码
 立即注册
查看: 581|回复: 19

[中国] [拆弹专家2].Shock.Wave.2.2020.1080p.BluRay.x264.DTS-10017 国粤语中字/12.07GB

[复制链接]

3893

主题

3894

帖子

1万

积分

版主

Rank: 7Rank: 7Rank: 7

积分
16924
发表于 2021-8-12 21:14:26 | 显示全部楼层 |阅读模式


◎译  名 拆弹专家2 / Shock Wave 2
◎年  代 2020
◎产  地 中国大陆 / 中国香港
◎类  别 动作 / 犯罪
◎语  言 汉语普通话 / 粤语 / 英语
◎上映日期 2020-12-24(中国大陆) / 2021-02-18(中国香港)
◎4K电影下载 http://www.4ktt.com/
◎豆瓣评分 7.5/10 (468681人评价)
◎豆瓣链接 https://movie.douban.com/subject/30171424/
◎片  长 121分钟
◎导  演 邱礼涛 Herman Yau (id:1274313)
◎编  剧 邱礼涛 Herman Yau (id:1274313)
      李敏 Erica Lee (id:1289664)
      李昇 Eric Lee (id:1390238)
◎演  员 刘德华 Andy Lau (id:1054424)
      刘青云 Sean Lau (id:1007251)
      倪妮 Ni Ni (id:1315861)
      谢君豪 Kwan-Ho Tse (id:1157914)
      姜皓文 Philip Keung Ho-Man (id:1317884)
      吴卓羲 Ron Ng (id:1274764)
      马浴柯 Marc Ma (id:1327671)
      黄德斌 Tak-bun Wong (id:1274442)
      郑子诚 Tse-sing Cheng (id:1316264)
      洪天明 Timmy Hung Tin-Ming (id:1314773)
      袁富华 Fu-wah Yuen (id:1359508)
      刘浩龙 Wilfred Lau (id:1275225)
      凌文龙 Man-Lung Ling (id:1375280)
      赵永洪 Raymond Chiu (id:1315541)
      蔡瀚亿 Babyjohn Choi (id:1335563)
      张竣杰 Chun Kit Chang (id:1371353)
      张扬 Yang Zhang (id:1446814)
      郑咏谦 Moses Wing-Him Cheng (id:1459957)
      莫浩峰 Sebastian Mok (id:1459955)
      伍咏诗 Ng Wing Sze (id:1380893)
      明德丰 Sherwin Ming (id:1459924)
      吴海昕 Sofiee Ng (id:1349291)
      周祉君 Aaron Chow (id:1365642)
      梁天尺 Leung Tin Chak (id:1407763)
      安吉·阿维斯塔 Angie Aveestar (id:1433162)
      钟志光 Chung Chi Kwong (id:1387029)
      顾纪筠 Priscilla Koo (id:1396949)
      甄咏蓓 Olivia Yan (id:1357202)
      梁健平 Kin Ping Leung (id:1345882)
      刘德华 Andy Lau (id:1054424)
      李捷 Jie Li (id:1403835)
      古玉芬 Esther Koo (id:1430121)
      林小强 Alvin Lam (id:1445687)
      麦振鸿 Chun Hung Mak (id:1328645)
      陈广鸿 Kwong-Hung Chan (id:1318796)
      钟炜钊 Wai Chiu Chung (id:1280783)
      林子侨 Che Kiu Lam (id:1326654)
      黄家宝 Stephanie Wong (id:1309674)
      徐德彪 Chui Tak Piu (id:1388364)
      余国亮 Kwok-Leung Yee (id:1310957)
      何家全 Ho Ka Chuen Loki (id:1388366)
      林嘉乐 Garrett Lam (id:1337789)
      李忠志 Chung Chi Li (id:1014763)

◎标  签 香港 / 警匪 / 犯罪 / 动作 / 2020 / 剧情 / 电影 / 华语

◎简  介
  香港某处发生爆炸案,前拆弹专家潘乘风(刘德华 饰)因昏迷于现场,被警方怀疑牵涉其中。苏醒后的潘乘风只能一边逃亡一边查明真相,然而,他的好友董卓文(刘青云 饰)和他的前女友庞玲(倪妮 饰)却给他讲述了两段截然不同的经历。有计划的爆炸案接二连三发生,真相却越来越扑朔迷离……
##### MediaInfo ######
General
Unique ID : 319593206727742529512520979388492385834 (0xF06F69A5C9A87890F621107F29038E2A)
Complete name : [email protected]mkv
Format : Matroska
Format version : Version 4
File size : 12.1 GiB
Duration : 2 h 0 min
Overall bit rate : 14.4 Mb/s
Encoded date : UTC 2021-07-25 13:14:10
Writing application : mkvmerge v59.0.0 ('Shining Star') 64-bit
Writing library : libebml v1.4.2 + libmatroska v1.6.4

Video
ID : 1
Format : AVC
Format/Info : Advanced Video Codec
Format profile : [email protected]
Format settings : CABAC / 4 Ref Frames
Format settings, CABAC : Yes
Format settings, Reference frames : 4 frames
Codec ID : V_MPEG4/ISO/AVC
Duration : 2 h 0 min
Bit rate : 11.3 Mb/s
Width : 1 920 pixels
Height : 804 pixels
Display aspect ratio : 2.40:1
Frame rate mode : Constant
Frame rate : 24.000 FPS
Color space : YUV
Chroma subsampling : 4:2:0
Bit depth : 8 bits
Scan type : Progressive
Bits/(Pixel*Frame) : 0.305
Stream size : 9.49 GiB (79%)
Writing library : x264 core 161 r3048+53M 0749c36 t_mod_New [(8 & 10)[email protected] X86_64]
Encoding settings : cabac=1 / ref=4 / deblock=1:-3:-3 / analyse=0x3:0x133 / me=umh / subme=11 / psy=1 / fade_compensate=0.00 / psy_rd=1.00:0.00 / mixed_ref=1 / me_range=48 / chroma_me=1 / trellis=2 / 8x8dct=1 / cqm=0 / deadzone=21,11 / fast_pskip=0 / chroma_qp_offset=-3 / threads=24 / lookahead_threads=6 / sliced_threads=0 / nr=0 / decimate=0 / interlaced=0 / bluray_compat=0 / constrained_intra=0 / fgo=0 / bframes=11 / b_pyramid=2 / b_adapt=2 / b_bias=0 / direct=3 / weightb=1 / open_gop=0 / weightp=2 / keyint=240 / keyint_min=1 / scenecut=40 / intra_refresh=0 / rc_lookahead=72 / rc=crf / mbtree=0 / crf=17.0000 / qcomp=0.80 / qpmin=0:0:0 / qpmax=69:69:69 / qpstep=4 / vbv_maxrate=62500 / vbv_bufsize=78125 / crf_max=0.0 / nal_hrd=none / filler=0 / ip_ratio=1.40 / pb_ratio=1.30 / aq=3:0.60 / aq-sensitivity=10.00 / aq-factor=1.00:1.00:1.00 / aq2=0 / aq3=0
Language : English
Default : Yes
Forced : No

Audio #1
ID : 2
Format : DTS
Format/Info : Digital Theater Systems
Codec ID : A_DTS
Duration : 2 h 0 min
Bit rate mode : Constant
Bit rate : 1 510 kb/s
Channel(s) : 6 channels
Channel layout : C L R Ls Rs LFE
Sampling rate : 48.0 kHz
Frame rate : 93.750 FPS (512 SPF)
Bit depth : 24 bits
Compression mode : Lossy
Stream size : 1.27 GiB (11%)
Title : Cantonese
Language : Chinese
Default : Yes
Forced : No

Audio #2
ID : 3
Format : DTS
Format/Info : Digital Theater Systems
Codec ID : A_DTS
Duration : 2 h 0 min
Bit rate mode : Constant
Bit rate : 1 510 kb/s
Channel(s) : 6 channels
Channel layout : C L R Ls Rs LFE
Sampling rate : 48.0 kHz
Frame rate : 93.750 FPS (512 SPF)
Bit depth : 24 bits
Compression mode : Lossy
Stream size : 1.27 GiB (11%)
Title : Mandarin
Language : Chinese
Default : No
Forced : No

Text #1
ID : 4
Format : PGS
Muxing mode : zlib
Codec ID : S_HDMV/PGS
Codec ID/Info : Picture based subtitle format used on BDs/HD-DVDs
Duration : 1 h 55 min
Bit rate : 32.4 kb/s
Count of elements : 3286
Stream size : 26.7 MiB (0%)
Title : cht
Language : Chinese
Default : No
Forced : No

Text #2
ID : 5
Format : PGS
Muxing mode : zlib
Codec ID : S_HDMV/PGS
Codec ID/Info : Picture based subtitle format used on BDs/HD-DVDs
Duration : 1 h 55 min
Bit rate : 30.0 kb/s
Count of elements : 3286
Stream size : 24.7 MiB (0%)
Title : chs
Language : Chinese
Default : Yes
Forced : No

Text #3
ID : 6
Format : PGS
Muxing mode : zlib
Codec ID : S_HDMV/PGS
Codec ID/Info : Picture based subtitle format used on BDs/HD-DVDs
Duration : 1 h 55 min
Bit rate : 35.2 kb/s
Count of elements : 3288
Stream size : 29.0 MiB (0%)
Title : eng
Language : English
Default : No
Forced : No

Menu
00:00:00.000 : :第 01 章
00:14:42.125 : :第 02 章
00:23:21.875 : :第 03 章
00:33:24.500 : :第 04 章
00:48:20.542 : :第 05 章
00:56:44.958 : :第 06 章
01:11:31.042 : :第 07 章
01:17:01.458 : :第 08 章
01:26:24.042 : :第 09 章
01:34:30.833 : :第 10 章
01:41:33.958 : :第 11 章
01:56:59.208 : :第 12 章



本帖子中包含更多资源

您需要 登录 才可以下载或查看,没有帐号?立即注册

x
回复

使用道具 举报

0

主题

221

帖子

52

积分

初级会员

Rank: 2

积分
52
发表于 2021-8-15 17:37:31 | 显示全部楼层
谢谢楼主发片
回复

使用道具 举报

0

主题

221

帖子

52

积分

初级会员

Rank: 2

积分
52
发表于 2021-8-15 17:39:13 | 显示全部楼层
谢谢楼主发片
回复

使用道具 举报

0

主题

947

帖子

273

积分

初级会员

Rank: 2

积分
273
发表于 2021-8-17 12:14:10 | 显示全部楼层
谢谢楼主发拆弹专家2
回复

使用道具 举报

0

主题

321

帖子

44

积分

新手上路

Rank: 1

积分
44
发表于 2021-8-18 23:07:47 | 显示全部楼层

收藏啦,感谢分享
回复

使用道具 举报

0

主题

82

帖子

37

积分

新手上路

Rank: 1

积分
37
发表于 2021-8-19 20:10:27 | 显示全部楼层
感谢分享!!!
回复

使用道具 举报

0

主题

175

帖子

21

积分

新手上路

Rank: 1

积分
21
发表于 2021-8-21 23:36:15 | 显示全部楼层
蓝光版  感谢  感谢分享
回复

使用道具 举报

0

主题

562

帖子

182

积分

初级会员

Rank: 2

积分
182
发表于 2021-8-22 18:06:41 | 显示全部楼层
收藏了,谢谢楼主分享
回复

使用道具 举报

0

主题

6

帖子

4

积分

新手上路

Rank: 1

积分
4
发表于 2021-8-22 19:19:00 | 显示全部楼层
每次都需要恢复貌似很麻烦把
回复

使用道具 举报

0

主题

197

帖子

27

积分

新手上路

Rank: 1

积分
27
发表于 2021-8-30 22:42:47 | 显示全部楼层
感谢楼主分享
回复

使用道具 举报

您需要登录后才可以回帖 登录 | 立即注册

本版积分规则

为防丢失网站网址,敬请关注官方微信公众号,再也不会迷路!
4K天堂会一路坚持,共建高清电影爱好者的精神家园。

Archiver|手机版|小黑屋|4K电影下载

GMT+8, 2022-7-5 04:55 , Processed in 0.109375 second(s), 20 queries , Gzip On.

Powered by Discuz! X3.4

Copyright © 2001-2020, Tencent Cloud.

快速回复 返回顶部 返回列表