4K天堂

 找回密码
 立即注册
查看: 2256|回复: 54

[人之怒].Wrath.of.Man.2021.2160p.WEB-DL.H265.DDP5.1.2Audio-10003 国英语/3.74GB

  [复制链接]

该用户从未签到

4619

主题

4658

帖子

1万

积分

版主

Rank: 7Rank: 7Rank: 7

积分
18999
发表于 2021-8-4 22:02:50 | 显示全部楼层 |阅读模式


◎译  名 人之怒 / 玩命钞劫(台) / 运钞车 / Cash Truck
◎片  名 Wrath of Man
◎年  代 2021
◎产  地 美国 / 英国
◎类  别 动作 / 犯罪
◎语  言 英语
◎上映日期 2021-05-10(中国大陆) / 2021-04-22(俄罗斯) / 2021-05-07(美国)
◎4K电影下载 http://www.4ktt.com/
◎豆瓣评分 6.8/10 (89949人评价)
◎豆瓣链接 https://movie.douban.com/subject/27046740/
◎片  长 118分钟
◎导  演 盖·里奇 Guy Ritchie (id:1025148)
◎编  剧 尼古拉斯·布赫里夫 Nicolas Boukhrief (id:1019943)
      艾瑞克·贝斯纳 éric Besnard (id:1033108)
      盖·里奇 Guy Ritchie (id:1025148)
      马恩·戴维斯 Marn Davies (id:1405637)
      伊凡·阿特金森 Ivan Atkinson (id:1405636)
◎演  员 杰森·斯坦森 Jason Statham (id:1049484)
      霍特·麦克卡兰尼 Holt McCallany (id:1118033)
      罗奇·威廉姆斯 Rocci Williams (id:1456269)
      乔什·哈奈特 Josh Hartnett (id:1025145)
      杰弗里·多诺万 Jeffrey Donovan (id:1044732)
      斯科特·伊斯特伍德 Scott Eastwood (id:1000188)
      安迪·加西亚 Andy Garcia (id:1002695)
      道比·欧帕瑞 Deobia Oparei (id:1326517)
      拉兹·阿隆索 Laz Alonso (id:1277094)
      劳尔·卡斯提洛 Raúl Castillo (id:1338121)
      克里斯·雷利 Chris Reilly (id:1352289)
      埃迪·马森 Eddie Marsan (id:1291072)
      尼芙·阿尔格 Niamh Algar (id:1410386)
      塔格·墨菲 Tadhg Murphy (id:1308673)
      马克·阿诺德 Mark Arnold (id:1057556)
      亚历克斯·费恩斯 Alex Ferns (id:1028439)
      乔什·柯德雷 Josh Cowdery (id:1450335)
      杰森·王 Jason Wong (id:1260279)
      罗伯·德兰尼 Rob Delaney (id:1268159)
      伊莱·布朗 Eli Brown (id:1413892)
      凯瑞·莎勒 Kerry Shale (id:1322372)
      卡梅伦·杰克 Cameron Jack (id:1368839)
      达雷尔·席尔瓦 Darrell D'Silva (id:1438597)
      巴布斯·奥卢桑莫昆 Babs Olusanmokun (id:1412919)
      多米尼克·托马斯 Dominique Thomas (id:1375866)
      琳·勒内 Lyne Renee (id:1217150)
      蕾贝卡·卡尔德 Rebecca Calder (id:1423736)
      伊芙·麦凯林 Eve Macklin (id:1345477)
      詹姆斯·沃伦 James Warren (id:1357923)
      史蒂威·戴维斯 Stevee Davies (id:1263226)
      蒙塔娜·曼宁 Montana Manning (id:1415104)
      安东尼·莫利纳利 Anthony Molinari (id:1045545)
      波兹·马龙 Post Malone (id:1432820)
      (id:1454486)
      杰拉尔德·泰勒 Gerald Tyler (id:1457718)
      艾伦·斯图尔特 Alan Stewart (id:1051226)

◎标  签 犯罪 / 动作 / 美国 / 2021 / 剧情 / 悬疑 / 英国 / 黑色幽默

◎简  介
  在一次全副武装的运钞车劫案中,梅斯先生(杰森·斯坦森 饰)的儿子作为案发目击者被劫匪杀害。怒火中烧的梅斯为报丧子之仇,化身H卧底成为运钞车安保,试图找出杀害他儿子的劫匪以及与劫匪暗中勾结的安保公司内鬼。
##### MediaInfo ######
General
Unique ID : 223607234535461952887959606057340622609 (0xA8392FD7319BF16161435FE51F95D711)
Complete name : 人之怒[email protected]COM.mkv
Format : Matroska
Format version : Version 4
File size : 3.74 GiB
Duration : 1 h 54 min
Overall bit rate : 4 663 kb/s
Encoded date : UTC 2021-08-04 07:56:34
Writing application : mkvmerge v51.0.0 ('I Wish') 64-bit
Writing library : libebml v1.4.0 + libmatroska v1.6.2

Video
ID : 1
Format : HEVC
Format/Info : High Efficiency Video Coding
Format profile : [email protected]@Main
Codec ID : V_MPEGH/ISO/HEVC
Duration : 1 h 54 min
Bit rate : 4 149 kb/s
Width : 3 840 pixels
Height : 1 608 pixels
Display aspect ratio : 2.40:1
Frame rate mode : Constant
Frame rate : 24.000 FPS
Color space : YUV
Chroma subsampling : 4:2:0
Bit depth : 8 bits
Bits/(Pixel*Frame) : 0.028
Stream size : 3.33 GiB (89%)
Default : Yes
Forced : No

Audio #1
ID : 2
Format : E-AC-3
Format/Info : Enhanced AC-3
Commercial name : Dolby Digital Plus
Codec ID : A_EAC3
Duration : 1 h 54 min
Bit rate mode : Constant
Bit rate : 256 kb/s
Channel(s) : 6 channels
Channel layout : L R C LFE Ls Rs
Sampling rate : 48.0 kHz
Frame rate : 31.250 FPS (1536 SPF)
Compression mode : Lossy
Stream size : 210 MiB (5%)
Title : 英语
Language : English
Service kind : Complete Main
Default : Yes
Forced : No

Audio #2
ID : 3
Format : E-AC-3
Format/Info : Enhanced AC-3
Commercial name : Dolby Digital Plus
Codec ID : A_EAC3
Duration : 1 h 54 min
Bit rate mode : Constant
Bit rate : 256 kb/s
Channel(s) : 6 channels
Channel layout : L R C LFE Ls Rs
Sampling rate : 48.0 kHz
Frame rate : 31.250 FPS (1536 SPF)
Compression mode : Lossy
Stream size : 210 MiB (5%)
Title : 国语
Language : Chinese
Service kind : Complete Main
Default : No
Forced : No







本帖子中包含更多资源

您需要 登录 才可以下载或查看,没有帐号?立即注册

x
回复

使用道具 举报

该用户从未签到

0

主题

2494

帖子

525

积分

中级会员

Rank: 3Rank: 3

积分
525
发表于 2021-8-5 20:26:39 | 显示全部楼层
感谢分享 辛苦上传
回复

使用道具 举报

该用户从未签到

0

主题

38

帖子

6

积分

新手上路

Rank: 1

积分
6
发表于 2021-8-5 21:21:03 | 显示全部楼层
谢谢分享!!!!
回复

使用道具 举报

该用户从未签到

0

主题

180

帖子

100

积分

初级会员

Rank: 2

积分
100
发表于 2021-8-5 21:52:26 | 显示全部楼层
多谢楼主分享
回复

使用道具 举报

  • TA的每日心情
    开心
    2022-4-27 00:15
  • 签到天数: 3 天

    [LV.2]偶尔看看I

    0

    主题

    99

    帖子

    99

    积分

    初级会员

    Rank: 2

    积分
    99
    发表于 2021-8-5 23:30:02 | 显示全部楼层
    感谢分享 辛苦上传
    回复

    使用道具 举报

  • TA的每日心情

    2022-4-1 13:39
  • 签到天数: 1 天

    [LV.1]初来乍到

    0

    主题

    162

    帖子

    40

    积分

    新手上路

    Rank: 1

    积分
    40
    发表于 2021-8-6 14:39:45 | 显示全部楼层
    111111111111111
    回复

    使用道具 举报

    该用户从未签到

    0

    主题

    21

    帖子

    156

    积分

    初级会员

    Rank: 2

    积分
    156
    发表于 2021-8-6 18:34:28 | 显示全部楼层
    谢谢楼主分享!
    回复

    使用道具 举报

    该用户从未签到

    0

    主题

    67

    帖子

    50

    积分

    初级会员

    Rank: 2

    积分
    50
    发表于 2021-8-6 21:49:44 | 显示全部楼层
    6666666666666666
    回复

    使用道具 举报

    该用户从未签到

    0

    主题

    2

    帖子

    1

    积分

    新手上路

    Rank: 1

    积分
    1
    发表于 2021-8-7 08:52:20 | 显示全部楼层

    Thanks for sharing.
    回复

    使用道具 举报

  • TA的每日心情
    擦汗
    昨天 16:54
  • 签到天数: 24 天

    [LV.4]偶尔看看III

    0

    主题

    392

    帖子

    234

    积分

    初级会员

    Rank: 2

    积分
    234
    发表于 2021-8-7 09:57:27 | 显示全部楼层
    精彩纷呈谢谢分享
    回复

    使用道具 举报

    您需要登录后才可以回帖 登录 | 立即注册

    本版积分规则

    为防丢失网站网址,敬请关注官方微信公众号,再也不会迷路!
    4K天堂会一路坚持,共建高清电影爱好者的精神家园。

    Archiver|手机版|小黑屋|4K电影下载

    GMT+8, 2022-10-6 21:02 , Processed in 0.187500 second(s), 23 queries , Gzip On.

    Powered by Discuz! X3.4

    Copyright © 2001-2020, Tencent Cloud.

    快速回复 返回顶部 返回列表