4K天堂

 找回密码
 立即注册
查看: 3829|回复: 81

[欧美] [哥斯拉大战金刚]Godzilla.vs.Kong.2021.1080p.BluRay.x264.DTS-HD.MA.7.1-FGT 12.1GB

  [复制链接]

该用户从未签到

5128

主题

5130

帖子

2万

积分

版主

Rank: 7Rank: 7Rank: 7

积分
22091
发表于 2021-6-12 23:55:54 | 显示全部楼层 |阅读模式


◎译  名 哥斯拉大战金刚/GvK/King Kong vs. Godzilla/哥吉拉大战金刚(台)/金刚大战哥斯拉
◎片  名 Godzilla vs Kong
◎年  代 2021
◎产  地 美国,澳大利亚,加拿大,印度
◎类  别 动作 / 科幻 / 冒险
◎语  言 英语,美国手语
◎上映日期 2021-03-24(中国台湾) / 2021-03-26(中国大陆) / 2021-03-31(美国)
◎豆瓣评分 6.4/10 from 222716 users
◎豆瓣链接 https://movie.douban.com/subject/26613692/
◎片  长 113分钟
◎导  演 亚当·温加德 Adam Wingard
◎编  剧 特里·鲁西奥 Terry Rossio / 埃里克·皮尔森 Eric Pearson / 麦克思·鲍伦斯坦 Max Borenstein / 迈克尔·道赫蒂 Michael Dougherty / 扎克·希尔兹 Zach Shields
◎主  演 亚历山大·斯卡斯加德 Alexander Skarsg?rd
      米莉·波比·布朗 Millie Bobby Brown
      丽贝卡·豪尔 Rebecca Hall
      凯莉·霍特尔 Kaylee Hottle
      布莱恩·泰里·亨利 Brian Tyree Henry
      小栗旬 Shun Oguri
      艾莎·冈萨雷斯 Eiza González
      朱利安·迪尼森 Julian Dennison
      兰斯·莱迪克 Lance Reddick
      凯尔·钱德勒 Kyle Chandler
      德米安·比齐尔 Demián Bichir
      哈基姆·凯-卡西姆 Hakeem Kae-Kazim
      钱信伊 Ronny Chieng
      约翰·皮鲁切洛 John Pirruccello
      克里斯·乔克 Chris Chalk
      康兰·卡萨尔 Conlan Casal
      布拉德·麦克默里 Brad McMurray
      本杰明·里格比 Benjamin Rigby
      普里西拉·道伊西 Priscilla Doueihy
      戴维·卡斯蒂洛 David Castillo
      吉姆·帕尔默 Jim Palmer
      柯蒂斯·布什 Curtis Bush
      皮拉·福德 Piéra Forde
      爱丽丝·兰斯伯里 Alice Lanesbury
      肖恩·麦克布莱德 Shawn McBride
      乔尔·皮尔斯 Joel Pierce
      乔恩·奎斯蒂德 Jon Quested
      塔斯尼姆·罗克 Tasneem Roc
      艾梅伯·瓦尔斯 Amber Walls
      迪索·拉莫斯 Diezel Ramos
      田中圭 Kei Tanaka
      渡边谦 Ken Watanabe

◎标  签 怪兽 | 哥斯拉 | 科幻 | 金刚 | 美国 | 动作 | 2021 | 奇幻

◎简  介  

  这两位宛如神衹一般强大的对手于一场壮观的战争中相遇,彼时世界命运正悬于一线。为了找到真正的家园,金刚与他的保护者们踏上了一次艰难的旅程。与他们一道前行的还有一个年轻的孤儿女孩——吉雅,这个女孩与金刚之间存在着一种独特而强大的紧密联系。但意想不到的是,他们在前行的航道上与愤怒的哥斯拉狭路相逢,也由此在全球引起了一系列破坏。一股无形的力量造成了这两只巨兽之间的巨大冲突,深藏在地心深处的奥秘也由此揭开。
Video
ID : 1
Format : AVC
Format/Info : Advanced Video Codec
Format profile : [email protected]
Format settings : CABAC / 4 Ref Frames
Format settings, CABAC : Yes
Format settings, Reference frames : 4 frames
Codec ID : V_MPEG4/ISO/AVC
Duration : 1 h 53 min
Bit rate : 11.5 Mb/s
Width : 1 920 pixels
Height : 804 pixels
Display aspect ratio : 2.40:1
Frame rate mode : Constant
Frame rate : 23.976 (24000/1001/189150) FPS
Color space : YUV
Chroma subsampling : 4:2:0
Bit depth : 8 bits
Scan type : Progressive
Bits/(Pixel*Frame) : 0.311
Stream size : 9.08 GiB (75%)
Writing library : x264 core 148 r2748 97eaef2
Encoding settings : cabac=1 / ref=4 / deblock=1:-2:-2 / analyse=0x3:0x113 / me=umh / subme=9 / psy=1 / psy_rd=1.00:0.15 / mixed_ref=1 / me_range=16 / chroma_me=1 / trellis=2 / 8x8dct=1 / cqm=0 / deadzone=21,11 / fast_pskip=1 / chroma_qp_offset=-3 / threads=72 / lookahead_threads=3 / sliced_threads=0 / nr=0 / decimate=1 / interlaced=0 / bluray_compat=0 / constrained_intra=0 / bframes=3 / b_pyramid=2 / b_adapt=1 / b_bias=0 / direct=3 / weightb=1 / open_gop=0 / weightp=2 / keyint=250 / keyint_min=25 / scenecut=40 / intra_refresh=0 / rc_lookahead=50 / rc=2pass / mbtree=1 / bitrate=11500 / ratetol=1.0 / qcomp=0.60 / qpmin=0 / qpmax=69 / qpstep=4 / cplxblur=20.0 / qblur=0.5 / vbv_maxrate=31250 / vbv_bufsize=31250 / nal_hrd=none / filler=0 / ip_ratio=1.40 / aq=1:1.00
Language : English
Default : Yes
Forced : No

Audio
ID : 2
Format : DTS XLL
Format/Info : Digital Theater Systems
Commercial name : DTS-HD Master Audio
Codec ID : A_DTS
Duration : 1 h 53 min
Bit rate mode : Variable
Bit rate : 3 810 kb/s
Channel(s) : 8 channels
Channel layout : C L R LFE Lb Rb Lss Rss
Sampling rate : 48.0 kHz
Frame rate : 93.750 FPS (512 SPF)
Bit depth : 24 bits
Compression mode : Lossless
Stream size : 3.01 GiB (25%)
Title : DTS-HD MA 7.1
Language : English
Default : Yes
Forced : No

Text #1
ID : 3
Format : UTF-8
Codec ID : S_TEXT/UTF8
Codec ID/Info : UTF-8 Plain Text
Duration : 1 h 45 min
Bit rate : 37 b/s
Count of elements : 923
Stream size : 28.7 KiB (0%)
Title : SRT
Language : English
Default : Yes
Forced : No

Text #2
ID : 4
Format : PGS
Muxing mode : zlib
Codec ID : S_HDMV/PGS
Codec ID/Info : Picture based subtitle format used on BDs/HD-DVDs
Duration : 1 h 45 min
Bit rate : 31.2 kb/s
Count of elements : 2707
Stream size : 23.7 MiB (0%)
Language : English
Default : No
Forced : No

Text #3
ID : 5
Format : PGS
Muxing mode : zlib
Codec ID : S_HDMV/PGS
Codec ID/Info : Picture based subtitle format used on BDs/HD-DVDs
Duration : 1 h 52 min
Bit rate : 18.4 kb/s
Count of elements : 1836
Stream size : 14.7 MiB (0%)
Language : French
Default : No
Forced : No

Text #4
ID : 6
Format : PGS
Muxing mode : zlib
Codec ID : S_HDMV/PGS
Codec ID/Info : Picture based subtitle format used on BDs/HD-DVDs
Duration : 1 h 52 min
Bit rate : 22.5 kb/s
Count of elements : 1764
Stream size : 18.1 MiB (0%)
Language : Spanish
Default : No
Forced : No

Text #5
ID : 7
Format : PGS
Muxing mode : zlib
Codec ID : S_HDMV/PGS
Codec ID/Info : Picture based subtitle format used on BDs/HD-DVDs
Duration : 1 h 52 min
Bit rate : 22.0 kb/s
Count of elements : 1764
Stream size : 17.7 MiB (0%)
Language : Portuguese
Default : No
Forced : No

Text #6
ID : 8
Format : PGS
Muxing mode : zlib
Codec ID : S_HDMV/PGS
Codec ID/Info : Picture based subtitle format used on BDs/HD-DVDs
Duration : 1 h 44 min
Bit rate : 1 388 b/s
Count of elements : 154
Stream size : 1.04 MiB (0%)
Language : French
Default : No
Forced : No

Menu
00:00:00.000 : Chapter 01
00:09:51.591 : Chapter 02
00:20:07.498 : Chapter 03
00:29:02.366 : Chapter 04
00:38:39.734 : Chapter 05
00:49:15.995 : Chapter 06
00:57:17.017 : Chapter 07
01:09:07.977 : Chapter 08
01:18:33.876 : Chapter 09
01:30:06.109 : Chapter 10
01:41:58.946 : Chapter 11



本帖子中包含更多资源

您需要 登录 才可以下载或查看,没有帐号?立即注册

x
回复

使用道具 举报

  • TA的每日心情
    开心
    2022-4-1 19:33
  • 签到天数: 1 天

    [LV.1]初来乍到

    0

    主题

    900

    帖子

    162

    积分

    初级会员

    Rank: 2

    积分
    162
    发表于 2021-6-13 00:03:29 | 显示全部楼层
    感谢楼主分享
    回复

    使用道具 举报

  • TA的每日心情
    开心
    2022-4-2 04:19
  • 签到天数: 1 天

    [LV.1]初来乍到

    0

    主题

    144

    帖子

    91

    积分

    初级会员

    Rank: 2

    积分
    91
    发表于 2021-6-13 01:49:29 | 显示全部楼层
    聽說這集是最刺激的
    回复

    使用道具 举报

  • TA的每日心情
    开心
    2022-4-2 06:23
  • 签到天数: 1 天

    [LV.1]初来乍到

    0

    主题

    536

    帖子

    83

    积分

    初级会员

    Rank: 2

    积分
    83
    发表于 2021-6-13 07:12:22 | 显示全部楼层
    听说不错下来看看,谢谢楼主的分享!!!
    回复

    使用道具 举报

    该用户从未签到

    0

    主题

    267

    帖子

    32

    积分

    新手上路

    Rank: 1

    积分
    32
    发表于 2021-6-13 09:28:01 | 显示全部楼层
    谢谢楼主的分享!!!
    回复

    使用道具 举报

    该用户从未签到

    0

    主题

    737

    帖子

    349

    积分

    初级会员

    Rank: 2

    积分
    349
    发表于 2021-6-13 09:31:53 | 显示全部楼层
    好的资源就要支持  谢谢版主
    回复

    使用道具 举报

    该用户从未签到

    0

    主题

    2

    帖子

    2

    积分

    新手上路

    Rank: 1

    积分
    2
    发表于 2021-6-13 09:34:32 | 显示全部楼层
    感谢楼主分享!!
    回复

    使用道具 举报

    该用户从未签到

    2

    主题

    137

    帖子

    118

    积分

    初级会员

    Rank: 2

    积分
    118
    发表于 2021-6-13 09:40:11 | 显示全部楼层
    谢谢楼主的分享!!!
    回复

    使用道具 举报

  • TA的每日心情
    开心
    2022-11-6 11:49
  • 签到天数: 1 天

    [LV.1]初来乍到

    0

    主题

    48

    帖子

    13

    积分

    新手上路

    Rank: 1

    积分
    13
    发表于 2021-6-13 09:42:46 | 显示全部楼层
    之前用金币买了却下不了,不懂这个链接如何……
    回复

    使用道具 举报

  • TA的每日心情
    无聊
    2022-4-1 13:29
  • 签到天数: 1 天

    [LV.1]初来乍到

    0

    主题

    64

    帖子

    358

    积分

    初级会员

    Rank: 2

    积分
    358
    发表于 2021-6-13 11:07:54 | 显示全部楼层
    多谢楼主分享
    回复

    使用道具 举报

    您需要登录后才可以回帖 登录 | 立即注册

    本版积分规则

    为防丢失网站网址,敬请关注官方微信公众号,再也不会迷路!
    4K天堂会一路坚持,共建高清电影爱好者的精神家园。

    Archiver|手机版|小黑屋|4K电影下载

    GMT+8, 2022-11-28 21:58 , Processed in 0.156250 second(s), 26 queries , Gzip On.

    Powered by Discuz! X3.4

    Copyright © 2001-2020, Tencent Cloud.

    快速回复 返回顶部 返回列表